Профессионал (Серии 1—16 из 16) (Алан Дзоциев) [2014/16, боевик, WEB-DLRip]

 

Создавать темы 21-Мар-2016 09:03

--Профессионал--
  • Год выпуска: 2014/16
  • Страна: Россия / «Форвард-фильм», «Панорама»
  • Жанр: боевик
  • Продолжительность: 16 х ~00:46:00
  • Перевод: Не требуется-
  • Режиссёр: Алан Дзоциев-
  • В ролях: Алексей Лобанов, Константин Стрельников, Игорь Лагутин, Евгения Игумнова, Сергей Юшкевич, Андрей Горбачев, Юрий Батурин, Анатолий Лобоцкий, Мария Решавская, Владимир Артемов...-
  • Вновь оказавшись на родной земле после многолетнего заключения за границей, разведчик Андрей Зубов стремится восстановить справедливость. Его группа оказалась жертвой чьей-то хитроумной интриги, в результате которой все его подчинённые погибли во время взрыва в Джакарте, а сам он был обвинён в торговле наркотиками и приговорён к смерти. В ожидании исполнения приговора Зубов четырнадцать лет провёл за решёткой, а тем временем, люди, виновные в его провале, получали новые чины и звания, а жена Зубова Катя погибла при очень странных обстоятельствах... Вырвавшись на волю, Зубов встречает в России очень холодный приём. Предателя Родины, каковым Андрея считают после провала его миссии, решено ликвидировать прямо в аэропорту. Однако настоящий профессионал и мастер своего дела, Зубов не только избегает смерти, но и сразу же выходит на след того, кто может рассказать ему всю правду о событиях четырнадцатилетней давности. Андрей начинает борьбу с оборотнями в погонах, на стороне которых в силу трагического стечения обстоятельств находится единственный близкий ему человек...-
  • Премьера в России: 14 марта 2016 (НТВ)--
  • --
  • Качество видео: WEB-DLRip
  • Формат видео: AVI
  • Видео кодек: XviD
  • Аудио кодек: AC3
  • Видео: 704x400 (1.76:1), 25.000 fps, XviD MPEG-4, ~1500 kbps avg, 0.211 bit/pixel
  • Аудио: 48.0 kHz, AC3 Dolby Digital, 2/0 (L,R) ch, ~192.00 kbps avg
  • Субтитры: нет
--

Media Info

General
Complete name : W:\O.S.A.\Торренты\Завершенные торренты\Professional.2014.XviD.WEB-DLRip.by.GeneralFilm\Serija.01.avi
Format : AVI
Format/Info : Audio Video Interleave
File size : 557 MiB
Duration : 46mn 5s
Overall bit rate : 1 689 Kbps
Writing application : VirtualDubMod 1.5.10.3 | www.virtualdub-fr.org || (build 2550/release)
Writing library : VirtualDubMod build 2550/release
Video
ID : 0
Format : MPEG-4 Visual
Format profile : Advanced [email protected]
Format settings, BVOP : 1
Format settings, QPel : No
Format settings, GMC : No warppoints
Format settings, Matrix : Custom
Codec ID : XVID
Codec ID/Hint : XviD
Duration : 46mn 5s
Bit rate : 1 488 Kbps
Width : 704 pixels
Height : 400 pixels
Display aspect ratio : 16:9
Frame rate : 25.000 fps
Color space : YUV
Chroma subsampling : 4:2:0
Bit depth : 8 bits
Scan type : Progressive
Compression mode : Lossy
Bits/(Pixel*Frame) : 0.211
Stream size : 490 MiB (88%)
Writing library : XviD 73
Audio
ID : 1
Format : AC-3
Format/Info : Audio Coding 3
Mode extension : CM (complete main)
Codec ID : 2000
Duration : 46mn 5s
Bit rate mode : Constant
Bit rate : 192 Kbps
Channel(s) : 2 channels
Channel positions : Front: L R
Sampling rate : 48.0 KHz
Bit depth : 16 bits
Compression mode : Lossy
Stream size : 63.3 MiB (11%)
Alignment : Split accross interleaves
Interleave, duration : 40 ms (1.00 video frame)
Interleave, preload duration : 500 ms
---- --
Яндекс.Метрика
Рейтинг@Mail.ru