Участковый / Серии: 1-24 из 24 (Михаил Кабанов) [2011, Детектив, HDTV 1080i]

 

Создавать темы 20-Мар-2016 18:35

Участковый -Год выпуска: 2011
Производство: Россия, Star Media
Жанр: Детектив
Продолжительность: ~ 00:43:00 / Серия
Субтитры Нет-Режиссёр: Михаил Кабанов
В ролях: Александр Бухаров, Владимир Гостюхин, Дмитрий Щербина, Борис Хвошнянский, Ольга Красько, Ирина Сидорова, Ольга Дибцева, Максим Заусалин, Максим Щёголев, Матвей Зубалевич, Артем Кобзев, Наталья Людскова, Юлия Маргулис, Ксения Непотребная, Евгений Фроленков, Павел Шингарев, Дмитрий Янышевский, Алла Малкова-Описание: "Новоселки" - сленговое название микрорайона на окраине столицы, в котором процветает преступность. Местные жители так привыкли к такому положению вещей, что кажется, уже никто и никогда не сможет заставить их поверить в силы правосудия. Но жизнь микрорайона меняется с приездом нового участкового Сергея Громова, бывшего старшего следователя убойного отдела... Сергей не любит вспоминать о своем прошлом, но работа оперативника научила его мгновенно оценивать ситуацию и принимать решения. Он не будет разгадывать ребусы свершившихся злодеяний, его задача – работа на опережение преступников…-Релиз: Rip by Nikolspup от MediaClub

Семпл-Качество: HDTV 1080i
Формат: TS
Видео кодек: AVC
Аудио кодек: MP2
Видео: MPEG-4 AVC, ~ 8500 Кбит/с, 1920x1080, 25 кадр/с, 0.152 Бит/(Пиксели*Кадры)
Аудио: MP2, 2 ch, 192 Кбит/с, 48,0 КГц

MI

Общее
Идентификатор : 1 (0x1)
Полное имя : F:\Фильмы торренты\Uchastkoviy.2011.HDTV.(1080i).MediaClub\Uchastkoviy.(01.seriya.iz.24).2011.HDTV.(1080i).MediaClub.ts
Формат : MPEG-TS
Размер файла : 2,40 Гбайт
Продолжительность : 40 м.
Режим общего битрейта : Переменный
Общий поток : 8482 Кбит/сек
Видео
Идентификатор : 901 (0x385)
Идентификатор меню : 1116 (0x45C)
Формат : AVC
Формат/Информация : Advanced Video Codec
Профиль формата : [email protected]
Параметр CABAC формата : Да
Параметр ReFrames формата : 2 кадра
Параметр GOP формата : M=3, N=30
Идентификатор кодека : 27
Продолжительность : 40 м.
Битрейт : 7869 Кбит/сек
Ширина : 1920 пикселей
Высота : 1080 пикселей
Соотношение сторон : 16:9
Частота кадров : 25,000 кадров/сек
Цветовое пространство : YUV
Субдискретизация насыщенности : 4:2:0
Битовая глубина : 8 бит
Тип развёртки : MBAFF
Бит/(Пиксели*Кадры) : 0.152
Размер потока : 2,23 Гбайт (93%)
Основные цвета : BT.709
Характеристики трансфера : BT.709
Коэффициенты матрицы : BT.709
Аудио
Идентификатор : 902 (0x386)
Идентификатор меню : 1116 (0x45C)
Формат : MPEG Audio
Версия формата : Version 1
Профиль формата : Layer 2
Идентификатор кодека : 3
Продолжительность : 40 м.
Вид битрейта : Постоянный
Битрейт : 192 Кбит/сек
Каналы : 2 канала
Частота : 48,0 КГц
Метод сжатия : С потерями
Задержка видео : -40 мс.
Размер потока : 55,6 Мбайт (2%)
Язык : Russian

Скриншоты

Яндекс.Метрика
Рейтинг@Mail.ru