[ Сегодня на трекере фрилич! Идет свободное скачивание без начисления Download ]

Ип Ман 3 / Yip Man 3 (2015) BDRip [H.264]

 

Создавать темы 15-Мар-2016 19:27

- Ип Ман 3D / Yip Man 3 (2015) BDRip [H.264]- Производство: Гонконг, Pegasus Motion Pictures, Super Hero Films
Жанр: Боевик, Драма
Режиссер: Уилсон Ип
Актеры: Донни Йен, Патрик Там, Цзинь Чжан, Линн Ханг, Майк Тайсон, Кент Чэн, Квок-Куен Чан, Менг Ло, Ка-Ян Леунг, Тони Люн Сиу Хунг, Карина ЭнДжи, Чзан Хань-Описание:
Гонконг, 1959 год. Известный мастер боевых искусств и, пожалуй, лучший боец во всём Китае Ип Ман тренирует в своей школе кунг-фу лучших учеников. Среди тех, кто приложил максимум усилий, чтобы стать учеником известного мастера, есть невероятно быстрый юноша, который в будущем станет известен всему миру как Брюс Ли.Однажды в городе появляется американский бизнесмен Фрэнк, который имеет свои виды на местную школу. Он начинает предпринимать попытки захватить её силой, но Ип вместе со своими учениками и другими неравнодушными людьми становится на её защиту. Проблема заключается в том, что на стороне Фрэнка находятся сотни бойцов, а также шеф местной полиции, который за деньги готов закрывать глаза на все устроенные беспорядки. Ситуация осложняется в тот момент, когда бандиты похищают со школы детей, и Ип понимает, что обязан вступить в новую ожесточённую схватку.
Рейтинг MPAA: PG-13 (детям до 13 лет просмотр нежелателен)
Дата мировой премьеры: 16 декабря 2015

Релиз от: K.E.N
(NNM-CLUB)
Продолжительность: 01:44:41
Качество видео: BDRip [thumb]http://sendfile.su/1214514[/thumb]
Перевод: Профессиональный (многоголосый, закадровый) Paradox & Omskbird, любительский (многоголосый, закадровый) RecentFilms
Субтитры: Английские (отключаемые)
Видео: AVC, 1024x428 (2.35:1), 24.000 fps, 2 351 Kbps (0.224 bit/pixel)
Аудио #1: AC-3, 48.0 KHz, 6 ch, 384 Kbps, CBR | Paradox & Omskbird
Аудио #2: AC-3, 48.0 KHz, 2 ch, 192 Kbps, CBR | RecentFilms
Аудио #3: AC-3, 48.0 KHz, 6 ch, 384 Kbps, CBR | Китайский

Mediainfo:

[scroll]Формат                                   : Matroska
Версия формата                           : Version 2
Размер файла                             : 2,46 Гбайт
Продолжительность                        : 1 ч. 44 м.
Общий поток                              : 3363 Кбит/сек
Дата кодирования                         : UTC 2016-03-15 14:57:32
Программа кодирования                    : mkvmerge v5.3.0 ('I could have danced') built on Feb  9 2012 10:38:07
Библиотека кодирования                   : libebml v1.2.3 + libmatroska v1.3.0
Attachment                               : Yes
Видео
Идентификатор                            : 1
Формат                                   : AVC
Формат/Информация                        : Advanced Video Codec
Профиль формата                          : [email protected]
Параметр CABAC формата                   : Да
Параметр ReFrames формата                : 10 кадров
Идентификатор кодека                     : V_MPEG4/ISO/AVC
Продолжительность                        : 1 ч. 44 м.
Битрейт                                  : 2336 Кбит/сек
Ширина                                   : 1024 пикселя
Высота                                   : 428 пикселей
Соотношение сторон                       : 2,40:1
Режим частоты кадров                     : Постоянный
Частота кадров                           : 24,000 кадра/сек
Цветовое пространство                    : YUV
Субдискретизация насыщенности            : 4:2:0
Битовая глубина                          : 8 бит
Тип развёртки                            : Прогрессивная
Бит/(Пиксели*Кадры)                      : 0.222
Размер потока                            : 1,71 Гбайт (69%)
Библиотека кодирования                   : x264 core 146 r2538 121396c
Настройки программы                      : cabac=1 / ref=10 / deblock=1:-3:-3 / analyse=0x3:0x133 / me=umh / subme=11 / psy=1 / psy_rd=1.00:0.15 / mixed_ref=1 / me_range=32 / chroma_me=1 / trellis=2 / 8x8dct=1 / cqm=0 / deadzone=21,11 / fast_pskip=0 / chroma_qp_offset=-3 / threads=12 / lookahead_threads=2 / sliced_threads=0 / nr=0 / decimate=0 / interlaced=0 / bluray_compat=0 / constrained_intra=0 / bframes=8 / b_pyramid=2 / b_adapt=2 / b_bias=0 / direct=3 / weightb=1 / open_gop=0 / weightp=2 / keyint=240 / keyint_min=24 / scenecut=40 / intra_refresh=0 / rc=crf / mbtree=0 / crf=17.4 / qcomp=0.60 / qpmin=0 / qpmax=69 / qpstep=4 / ip_ratio=1.40 / pb_ratio=1.30 / aq=1:0.70
Язык                                     : English
Default                                  : Да
Forced                                   : Нет
Аудио #1
Идентификатор                            : 2
Формат                                   : AC-3
Формат/Информация                        : Audio Coding 3
Расширение режима                        : CM (complete main)
Параметр Endianness формата              : Big
Идентификатор кодека                     : A_AC3
Продолжительность                        : 1 ч. 44 м.
Вид битрейта                             : Постоянный
Битрейт                                  : 384 Кбит/сек
Каналы                                   : 6 каналов
Расположение каналов                     : Front: L C R, Side: L R, LFE
Частота                                  : 48,0 КГц
Битовая глубина                          : 16 бит
Метод сжатия                             : С потерями
Размер потока                            : 288 Мбайт (11%)
Заголовок                                : Многоголосый (Paradox & Omskbird records)
Язык                                     : Russian
Default                                  : Да
Forced                                   : Нет
Аудио #2
Идентификатор                            : 3
Формат                                   : AC-3
Формат/Информация                        : Audio Coding 3
Расширение режима                        : CM (complete main)
Параметр Endianness формата              : Big
Идентификатор кодека                     : A_AC3
Продолжительность                        : 1 ч. 44 м.
Вид битрейта                             : Постоянный
Битрейт                                  : 192 Кбит/сек
Каналы                                   : 2 канала
Расположение каналов                     : Front: L R
Частота                                  : 48,0 КГц
Битовая глубина                          : 16 бит
Метод сжатия                             : С потерями
Размер потока                            : 144 Мбайт (6%)
Заголовок                                : Многоголосый  (RecentFilms)
Язык                                     : Russian
Default                                  : Нет
Forced                                   : Нет
Аудио #3
Идентификатор                            : 4
Формат                                   : AC-3
Формат/Информация                        : Audio Coding 3
Расширение режима                        : CM (complete main)
Параметр Endianness формата              : Big
Идентификатор кодека                     : A_AC3
Продолжительность                        : 1 ч. 44 м.
Вид битрейта                             : Постоянный
Битрейт                                  : 384 Кбит/сек
Каналы                                   : 6 каналов
Расположение каналов                     : Front: L C R, Side: L R, LFE
Частота                                  : 48,0 КГц
Битовая глубина                          : 16 бит
Метод сжатия                             : С потерями
Размер потока                            : 288 Мбайт (11%)
Заголовок                                : оригинал
Язык                                     : Chinese
Default                                  : Нет
Forced                                   : Нет
Текст
Идентификатор                            : 5
Формат                                   : UTF-8
Идентификатор кодека                     : S_TEXT/UTF8
Идентификатор кодека/Информация          : UTF-8 Plain Text
Язык                                     : English
Default                                  : Нет
Forced                                   : Нет[/scroll]
Скриншоты:
-Время раздачи: 7/24 (до появления первых 3-5 скачавших)
Яндекс.Метрика
Рейтинг@Mail.ru