Красный холст / The Red Canvas (Кеннет Чамитов, Адам Бостер)[2009, Боевик, драма, HDTVRip-AVC] от MediaClub | P

 

Создавать темы 28-Дек-2013 04:43

Информация о фильме
Название: Красный холст
Оригинальное название: The Red Canvas
Год выхода: 2009
Жанр: Боевик, драма
Режиссер: Кеннет Чамитов, Адам Бостер
В ролях: Винг Реймз, Джордж Такей, Мария Кончита Алонсо, Жермен Андре, Риз Энджел, Марджи Бетке, Адам Бостер, Энтони Брашерс, Лиза Каннинг
О фильме:
Красный Холст — драма о безжалостном турнире боевых искусств. У Джонни Санчеза беспокойное прошлое. Это проявляется в разногласии между ним и его семьей. В то время когда Джонни освобождают из тюрьмы, школу его отца собираются закрыть. Единственный способ избежать этого — борьба на турнире Красного Холста, напоминающий «круг смерти», где зрители могут избивать борющиеся стороны, если они подходят слишком близко к краю. Джонни должен найти ответы на ошибки прошлого.

Страна: США
Студия: Beachwood Cottage Film and Music, Boster Castle, Boster Studios
Продолжительность: 01:36:46
Перевод: Профессиональный многоголосый (НТВ+)
Файл
Кодек: MPEG-4 AVC
Качество: HDTVRip (AVC)
Видео: 2000 Кбит/с, 1024x512, 25.000 кадр/с
Звук:
Аудио #1: Русский (AC3, 6 ch, 448 Кбит/с)
Аудио #2: Английский (AC3, 6 ch, 448 Кбит/с)
Аудио #3: Немецкий (AC3, 6 ch, 448 Кбит/с)

Скриншоты

MI

Общее
Полное имя : Krasnyj.xolst.2009.x264.HDTVRip(AVC).MediaClub.mkv
Формат : Matroska
Версия формата : Version 2
Размер файла : 2,26 Гбайт
Продолжительность : 1 ч. 36 м.
Общий поток : 3342 Кбит/сек
Дата кодирования : UTC 2013-12-27 16:32:10
Программа кодирования : mkvmerge v5.4.0 ('Piper') built on Mar 10 2012 13:34:39
Библиотека кодирования : libebml v1.2.3 + libmatroska v1.3.0
Видео
Идентификатор : 1
Формат : AVC
Формат/Информация : Advanced Video Codec
Профиль формата : [email protected]
Параметр CABAC формата : Да
Параметр ReFrames формата : 9 кадров
Идентификатор кодека : V_MPEG4/ISO/AVC
Продолжительность : 1 ч. 36 м.
Битрейт : 2000 Кбит/сек
Ширина : 1024 пикселя
Высота : 512 пикселей
Соотношение сторон : 2,000
Режим частоты кадров : Постоянный
Частота кадров : 25,000 кадров/сек
Цветовое пространство : YUV
Субдискретизация насыщенности : 4:2:0
Битовая глубина : 8 бит
Тип развёртки : Прогрессивная
Бит/(Пиксели*Кадры) : 0.153
Размер потока : 1,31 Гбайт (58%)
Библиотека кодирования : x264 core 125 r2208 d9d2288
Настройки программы : cabac=1 / ref=9 / deblock=1:-2:-2 / analyse=0x3:0x133 / me=umh / subme=10 / psy=1 / psy_rd=1.00:0.15 / mixed_ref=1 / me_range=32 / chroma_me=1 / trellis=2 / 8x8dct=1 / cqm=0 / deadzone=21,11 / fast_pskip=0 / chroma_qp_offset=-3 / threads=6 / lookahead_threads=1 / sliced_threads=0 / nr=0 / decimate=0 / interlaced=0 / bluray_compat=0 / constrained_intra=0 / bframes=8 / b_pyramid=2 / b_adapt=2 / b_bias=0 / direct=3 / weightb=1 / open_gop=0 / weightp=2 / keyint=250 / keyint_min=25 / scenecut=40 / intra_refresh=0 / rc=2pass / mbtree=0 / bitrate=2000 / ratetol=1.0 / qcomp=0.60 / qpmin=0 / qpmax=69 / qpstep=4 / cplxblur=20.0 / qblur=0.5 / ip_ratio=1.40 / pb_ratio=1.30 / aq=1:0.80
Default : Да
Forced : Нет
Аудио #1
Идентификатор : 2
Формат : AC-3
Формат/Информация : Audio Coding 3
Расширение режима : CM (complete main)
Параметр Endianness формата : Big
Идентификатор кодека : A_AC3
Продолжительность : 1 ч. 36 м.
Вид битрейта : Постоянный
Битрейт : 448 Кбит/сек
Каналы : 6 каналов
Расположение каналов : Front: L C R, Side: L R, LFE
Частота : 48,0 КГц
Битовая глубина : 16 бит
Метод сжатия : С потерями
Размер потока : 310 Мбайт (13%)
Язык : Russian
Default : Да
Forced : Нет
Аудио #2
Идентификатор : 3
Формат : AC-3
Формат/Информация : Audio Coding 3
Расширение режима : CM (complete main)
Параметр Endianness формата : Big
Идентификатор кодека : A_AC3
Продолжительность : 1 ч. 36 м.
Вид битрейта : Постоянный
Битрейт : 448 Кбит/сек
Каналы : 6 каналов
Расположение каналов : Front: L C R, Side: L R, LFE
Частота : 48,0 КГц
Битовая глубина : 16 бит
Метод сжатия : С потерями
Задержка видео : 7 с. 0 мс.
Размер потока : 310 Мбайт (13%)
Язык : English
Default : Нет
Forced : Нет
Аудио #3
Идентификатор : 4
Формат : AC-3
Формат/Информация : Audio Coding 3
Расширение режима : CM (complete main)
Параметр Endianness формата : Big
Идентификатор кодека : A_AC3
Продолжительность : 1 ч. 36 м.
Вид битрейта : Постоянный
Битрейт : 448 Кбит/сек
Каналы : 6 каналов
Расположение каналов : Front: L C R, Side: L R, LFE
Частота : 48,0 КГц
Битовая глубина : 16 бит
Метод сжатия : С потерями
Задержка видео : 7 с. 0 мс.
Размер потока : 310 Мбайт (13%)
Язык : German
Default : Нет
Forced : Нет
Яндекс.Метрика
Рейтинг@Mail.ru