[ Сегодня на трекере фрилич! Идет свободное скачивание без начисления Download ]

Снеговик / The Snowman ( Дайян Джексон, Джимми Т. Мураками)[1982мультфильм, короткометражка, фэнтези, приключения, семейный, BDRip 720p]

 

Создавать темы 28-Дек-2013 04:27

Информация о фильме
Название: Снеговик
Оригинальное название: The Snowman
Год выхода: 1982
Жанр: мультфильм, короткометражка, фэнтези, приключения, семейный
Режиссер: Дайян Джексон, Джимми Т. Мураками
В ролях: Дэвид Боуи, Рэймонд Бриггс
О фильме: Мультфильм рассказывает о маленьком мальчике и волшебном снеговике, которого он сделал накануне Рождества, и об их чудесных приключениях в Рождественскую Ночь.

Выпущено: Snowman Enterprises
Продолжительность: 00:25:38
Перевод: Не требуется
Файл
Кодек: x264
Качество: BDRip (источник: Blu-ray Disc)
Видео: 1280x720 (16:9), 25 fps, 12.1 Mbps
Аудио: AC-3, 2 ch, 320 kbps
Скачать: сэмпл

Скриншоты

MI

Общее
Уникальный идентификатор : 199331086635757912292357179275782215989 (0x95F5C5571322DBBC8983C44CC3315935)
Полное имя : The.Snowman.1982.BDRip.720p.Eng.mkv
Формат : Matroska
Версия формата : Version 2
Размер файла : 2,22 Гбайт
Продолжительность : 25 м.
Общий поток : 12,4 Мбит/сек
Название фильма : Снеговик / The Snowman (1982)
Дата кодирования : UTC 2013-12-26 19:14:55
Программа кодирования : mkvmerge v5.8.0 ('No Sleep / Pillow') built on Sep 2 2012 15:37:04
Библиотека кодирования : libebml v1.2.3 + libmatroska v1.3.0
Видео
Идентификатор : 1
Формат : AVC
Формат/Информация : Advanced Video Codec
Профиль формата : [email protected]
Параметр CABAC формата : Да
Параметр ReFrames формата : 9 кадров
Идентификатор кодека : V_MPEG4/ISO/AVC
Продолжительность : 25 м.
Битрейт : 12,1 Мбит/сек
Ширина : 1280 пикселей
Высота : 720 пикселей
Соотношение сторон : 16:9
Режим частоты кадров : Постоянный
Частота кадров : 25,000 кадров/сек
Цветовое пространство : YUV
Субдискретизация насыщенности : 4:2:0
Битовая глубина : 8 бит
Тип развёртки : Прогрессивная
Бит/(Пиксели*Кадры) : 0.525
Размер потока : 2,12 Гбайт (95%)
Заголовок : Release by AlexKa
Библиотека кодирования : x264 core 140 r2377 1ca7bb9
Настройки программы : cabac=1 / ref=9 / deblock=1:0:0 / analyse=0x3:0x133 / me=umh / subme=9 / psy=1 / psy_rd=1.00:0.00 / mixed_ref=1 / me_range=32 / chroma_me=1 / trellis=2 / 8x8dct=1 / cqm=0 / deadzone=21,11 / fast_pskip=0 / chroma_qp_offset=-2 / threads=12 / lookahead_threads=2 / sliced_threads=0 / nr=0 / decimate=1 / interlaced=0 / bluray_compat=0 / constrained_intra=0 / bframes=9 / b_pyramid=2 / b_adapt=2 / b_bias=0 / direct=3 / weightb=1 / open_gop=0 / weightp=2 / keyint=250 / keyint_min=25 / scenecut=40 / intra_refresh=0 / rc=2pass / mbtree=0 / bitrate=12086 / ratetol=1.0 / qcomp=0.60 / qpmin=0 / qpmax=69 / qpstep=4 / cplxblur=20.0 / qblur=0.5 / ip_ratio=1.40 / pb_ratio=1.30 / aq=1:1.00
Язык : English
Аудио
Идентификатор : 2
Формат : AC-3
Формат/Информация : Audio Coding 3
Расширение режима : CM (complete main)
Параметр Endianness формата : Big
Идентификатор кодека : A_AC3
Продолжительность : 25 м.
Вид битрейта : Постоянный
Битрейт : 320 Кбит/сек
Каналы : 2 канала
Расположение каналов : Front: L R
Частота : 48,0 КГц
Битовая глубина : 16 бит
Метод сжатия : С потерями
Размер потока : 58,7 Мбайт (3%)
Заголовок : Original
Язык : English
Меню
00:00:00.000 : :Chapter 01
00:03:51.800 : :Chapter 02
00:09:05.359 : :Chapter 03
00:12:32.000 : :Chapter 04
00:18:55.520 : :Chapter 05
00:23:00.439 : :Chapter 06
Яндекс.Метрика
Рейтинг@Mail.ru