[ Сегодня на трекере фрилич! Идет свободное скачивание без начисления Download ]

Шпионский мост / Bridge of Spies (2015) BDRip

 

Создавать темы 11-Мар-2016 06:08

-Шпионский мост / Bridge of Spies (2015) BDRip «Когда мир на грани войны, лишь честь одного человека может предотвратить катастрофу»- Производство: США, Германия, Индия / Amblin Entertainment, DreamWorks SKG, Fox 2000 Pictures
Жанр: триллер, драма, биография
Режиссер: Стивен Спилберг
Продюсер: Кристи Макоско Кригер, Марк Э. Платт, Стивен Спилберг
Актеры: Том Хэнкс, Марк Райлэнс, Эми Райан, Алан Алда, Остин Стоуэлл, Скотт Шеперд, Джесси Племонс, Доменик Ломбардоззи, Себастьян Кох, Ив Хьюсон, Дэкин Мэтьюз, Майкл Гэстон, Питер МакРобби, Стефан Канкен, Джошуа Харто, Билли Магнуссен, Марк Цак, Эдвард Джеймс Хайланд, Марко Кака, Михаил Горевой, Джон Окума
Описание:
Действие фильма происходит на фоне серии реальных исторических событий и рассказывает о бруклинском адвокате Джеймсе Доноване, который оказывается в эпицентре холодной войны, когда ЦРУ отправляет его на практически невозможное задание — договориться об освобождении захваченного в СССР американского пилота самолета-разведчика U2.

Возраст: 16+ (зрителям, достигшим 16 лет)
Рейтинг MPAA: PG-13 (детям до 13 лет просмотр нежелателен)
Дата мировой премьеры: 4 октября 2015
Дата российской премьеры: 3 декабря 2015, «Двадцатый Век Фокс СНГ»

Продолжительность: 02:21:19
Качество: BDRip
Перевод: Дублированный (Лицензия BD EUR)
Субтитры: Отсутствуют
Видео: MPEG4, XviD, 720x304 (2.35:1), 23.976 fps, 2 037 Kbps (0.388 bit/pixel)
Аудио: AC-3, 48.0 KHz, 6 ch, 448 Kbps, CBR - Русский
Аудио: AC-3, 48.0 KHz, 6 ch, 448 Kbps, CBR - Украинский

Награды:

Оскар, 2016 год
Победитель (1):
Лучшая мужская роль второго плана ( Марк Райлэнс )
Номинации (5):
Лучший фильм
Лучший сценарий
Лучший звук
Лучший саундтрек
Лучшая работа художника-постановщика
Золотой глобус, 2016 год
Номинации (1):
Лучшая мужская роль второго плана (Марк Райлэнс)
Британская академия, 2016 год
Победитель (1):
Лучшая мужская роль второго плана ( Марк Райлэнс )
Номинации (8):
Лучший фильм
Лучший оригинальный сценарий
Лучшая работа оператора (Януш Камински)
Лучший звук
Лучший монтаж
Лучший саундтрек
Лучшая работа художника-постановщика (Рена ДеАнджело, Адам Штокхаузен)
Премия имени Дэвида Лина за достижения в режиссуре (Стивен Спилберг)
Премия Гильдии актеров, 2016 год
Номинации (1):
Лучшая мужская роль второго плана (Марк Райлэнс)

MediaInfo:

Формат                                   : AVI
Формат/Информация                        : Audio Video Interleave
Профиль формата                          : OpenDML
Размер файла                             : 2,91 Гбайт
Продолжительность                        : 2 ч. 21 м.
Общий поток                              : 2948 Кбит/сек
Название фильма                          : Bridge of Spies (2015) by Steven Spielberg
Режиссёр                                 : HRIME
Программа кодирования                    : VirtualDubMod 1.5.10.2 (build 2542/release)
Авторское право                          : HQ-ViDEO
Примечание                               : 11.03.2016
Видео
Идентификатор                            : 0
Формат                                   : MPEG-4 Visual
Профиль формата                          : Advanced [email protected]
Параметр BVOP формата                    : 1
Параметр QPel формата                    : Нет
Параметр GMC формата                     : Без точки перехода
Параметр матрицы формата                 : Выборочная
Идентификатор кодека                     : XVID
Идентификатор кодека/Подсказка           : XviD
Продолжительность                        : 2 ч. 21 м.
Битрейт                                  : 2037 Кбит/сек
Ширина                                   : 720 пикселей
Высота                                   : 304 пикселя
Соотношение сторон                       : 2,35:1
Частота кадров                           : 23,976 кадра/сек
Цветовое пространство                    : YUV
Субдискретизация насыщенности            : 4:2:0
Битовая глубина                          : 8 бит
Тип развёртки                            : Прогрессивная
Метод сжатия                             : С потерями
Бит/(Пиксели*Кадры)                      : 0.388
Размер потока                            : 2,01 Гбайт (69%)
Библиотека кодирования                   : XviD 67
Аудио #1
Идентификатор                            : 1
Формат                                   : AC-3
Формат/Информация                        : Audio Coding 3
Расширение режима                        : CM (complete main)
Параметр Endianness формата              : Big
Идентификатор кодека                     : 2000
Продолжительность                        : 2 ч. 21 м.
Вид битрейта                             : Постоянный
Битрейт                                  : 448 Кбит/сек
Каналы                                   : 6 каналов
Расположение каналов                     : Front: L C R, Side: L R, LFE
Частота                                  : 48,0 КГц
Битовая глубина                          : 16 бит
Метод сжатия                             : С потерями
Размер потока                            : 453 Мбайт (15%)
Выравнивание                             : Разделение по промежуткам
Продолжительность промежутка             : 42  мс. (1,00 видеокадр)
Время предзагрузки промежутка            : 500  мс.
Аудио #2
Идентификатор                            : 2
Формат                                   : AC-3
Формат/Информация                        : Audio Coding 3
Расширение режима                        : CM (complete main)
Параметр Endianness формата              : Big
Идентификатор кодека                     : 2000
Продолжительность                        : 2 ч. 21 м.
Вид битрейта                             : Постоянный
Битрейт                                  : 448 Кбит/сек
Каналы                                   : 6 каналов
Расположение каналов                     : Front: L C R, Side: L R, LFE
Частота                                  : 48,0 КГц
Битовая глубина                          : 16 бит
Метод сжатия                             : С потерями
Размер потока                            : 453 Мбайт (15%)
Выравнивание                             : Разделение по промежуткам
Продолжительность промежутка             : 42  мс. (1,00 видеокадр)
Время предзагрузки промежутка            : 500  мс.
Скриншоты:
Время раздачи: 24/7. До первых 5 скачавших.
Яндекс.Метрика
Рейтинг@Mail.ru