[ Сегодня на трекере фрилич! Идет свободное скачивание без начисления Download ]

Бомбардировщики и штурмовики Второй мировой войны (4 серии из 4) [2014, Документальный, авиация, война, история, IPTVRip]

 

Создавать темы 07-Мар-2016 01:52

Бомбардировщики и штурмовики Второй мировой войны (4 серии из 4)
Дата/Год выпуска: 2014
Страна: Россия, ОАО «ТРК ВС РФ «ЗВЕЗДА»
Жанр: Документальный, авиация, война, история
Продолжительность: 4 х ~ 00:37:54
Перевод: Не требуется
Телеканал: «ЗВЕЗДА»
Описание: Сериал рассказывает о развитии бомбардировочной и штурмовой авиации до войны и о том, какую роль она сыграла во Второй мировой войне. Представлены самолеты Германии, Великобритании, США, Италии, Японии и СССР.
Доп. информация: Авторство релиза - alf62

качество: IPTVRip
формат: AVI
Видео: 704x400 (1.76:1), 25 fps, XviD build 73 ~1799 kbps avg, 0.26 bit/pixel
Аудио: 48 kHz, AC3 Dolby Digital, 2/0 (L,R) ch, ~192.00 kbps avg

Список выпусков/серий

1. Небесный меч блицкрига
Фильм рассказывает о взглядах на развитие бомбардировочной авиации до войны и о том, какую роль она играла в первый год ведения боевых действий. Нападение Германии на Польшу, Францию и другие европейские страны. Битва за Британию.
2. Тактика боя
В фильме представлены самолёты фронтовой авиации, чьим назначением была поддержка своих войск над полем боя и ближнем тылу противника. Рассказывается о действиях немецких и советских бомбардировщиков в противостоянии Германии и СССР. А также о самолётах Италии, США и Великобритании.
3. «Стратегическая дубинка»
Фильм посвящён дальней бомбардировочной авиации Германии, СССР, Великобритании и США. Представлен круг стратегических задач, которые она решала, и их влияние на ход войны.
4. С прицелом на будущее
В фильме идёт рассказ об участии бомбардировочной авиации в боевых действиях на море. Показана роль палубной авиации США и Японии. Также представлены действия лёгких советских бомбардировщиков По-2. Рассказывается об экспериментальных и первых реактивных бомбардировщиках. Завершается фильм представлением американского стратегического бомбардировщика B-29 - первого носителя ядерного оружия.

MediaInfo

Бомбардировщики.и.штурмовики.ВМВ.2014.XviD.IPTVRip.alf62\Бомбардировщики.и.штурмовики.ВМВ.(1.серия.из.4).Небесный.меч.блицкрига.2014.XviD.IPTVRip.alf62.aviФормат : AVIФормат/Информация : Audio Video InterleaveРазмер файла : 542 МбайтПродолжительность : 37 м.Общий поток : 2001 Кбит/секБиблиотека кодирования : Boilsoft Joiner build 2411/release
ВидеоИдентификатор : 0Формат : MPEG-4 VisualПрофиль формата : Advanced [email protected] BVOP формата : 2Параметр QPel формата : НетПараметр GMC формата : Без точки переходаПараметр матрицы формата : Default (H.263)Идентификатор кодека : XVIDИдентификатор кодека/Подсказка : XviDПродолжительность : 37 м.Битрейт : 1800 Кбит/секШирина : 704 пикселяВысота : 400 пикселейСоотношение сторон : 16:9Частота кадров : 25,000 кадров/секЦветовое пространство : YUVСубдискретизация насыщенности : 4:2:0Битовая глубина : 8 битТип развёртки : ПрогрессивнаяМетод сжатия : С потерямиБит/(Пиксели*Кадры) : 0.256Размер потока : 488 Мбайт (90%)Библиотека кодирования : XviD 73
АудиоИдентификатор : 1Формат : AC-3Формат/Информация : Audio Coding 3Расширение режима : CM (complete main)Параметр Endianness формата : BigИдентификатор кодека : 2000Продолжительность : 37 м.Вид битрейта : ПостоянныйБитрейт : 192 Кбит/секКаналы : 2 каналаРасположение каналов : Front: L RЧастота : 48,0 КГцБитовая глубина : 16 битМетод сжатия : С потерямиРазмер потока : 52,0 Мбайт (10%)Выравнивание : Разделение по промежуткамПродолжительность промежутка : 40 мс. (1,00 видеокадр)Время предзагрузки промежутка : 500 мс.

Скриншоты

Яндекс.Метрика
Рейтинг@Mail.ru