Очень страшное кино 5 / Scary MoVie (Малкольм Д. Ли / Malcolm D. Lee) [2013, США, комедия, BDRip] [RUS] Dub BD

 

Создавать темы 28-Дек-2013 02:27

Очень страшное кино 5 / Scary MoVie
«Зло поднимается. Готовьте контрацептивы»
- Страна: США / Brad Grey Pictures, Dimension Films
Жанр: комедия
Год выпуска: 2013
Продолжительность: 01:25:46
Перевод: Профессиональный (дублированный) лицензия BD
Cубтитры: нет
Режиссёр: Малкольм Д. Ли / Malcolm D. Lee
В ролях: Эшли Тисдейл, Саймон Рекс, Эрика Эш, Катрина Боуден, Терри Крюс, Хэзер Локлир, Жан-Поль Мано, Джерри О’Коннелл, Молли Шеннон, Кейт Уолш, Снуп Догг, Майк Тайсон, Чарли Шин, Линдси Лохан.
Описание: Молодая супружеская пара Дэн и Джоди начинают замечать некоторые странные активности, когда они приносят своего новорожденного ребенка Айдена домой из больницы. Но когда нарастают проблемы и хаос в работе Джоди и карьере Дэна, они понимают, что их семью преследуют гнусные демоны. Вместе с советом сертифицированных специалистов и при помощи многочисленных камер, они должны выяснить, как избавиться от этих существ, пока не стало слишком поздно..-Рейтинг
3.40 (30 423)
kinopoisk.ru: 4.305 (15 336)
MPAA: - детям до 13 лет просмотр не желателен-Сэмпл: http://sendfile.su/915001-Качество видео: BDRip [SCARY MOVIE 5_HDCLUB]
Формат видео: AVI
Видео: XviD build 65, 704x400 (16:9), 24.000 fps, ~1977 kbps avg, 0.293 bit/pixel
Аудио: 48 kHz, AC3 Dolby Digital, 3/2 (L,C,R,l,r) + LFE ch, ~448 kbps avg (Dub)
-

MediaInfo

General
Complete name : D:\Scary.MoVie.5.2013.Dub.RUS-Transfer.BDRip.1,46Gb.XviD.AC3.avi
Format : AVI
Format/Info : Audio Video Interleave
File size : 1.46 GiB
Duration : 1h 25mn
Overall bit rate : 2 434 Kbps
Writing application : VirtualDubModRus 1.5.10.2 (build 2542/release)
Writing library : VirtualDubMod build 2542/release
Video
ID : 0
Format : MPEG-4 Visual
Format profile : Advanced [email protected]
Format settings, BVOP : 1
Format settings, QPel : No
Format settings, GMC : No warppoints
Format settings, Matrix : Custom
Codec ID : XVID
Codec ID/Hint : XviD
Duration : 1h 25mn
Bit rate : 1 977 Kbps
Width : 704 pixels
Height : 400 pixels
Display aspect ratio : 16:9
Frame rate : 24.000 fps
Color space : YUV
Chroma subsampling : 4:2:0
Bit depth : 8 bits
Scan type : Progressive
Compression mode : Lossy
Bits/(Pixel*Frame) : 0.293
Stream size : 1.18 GiB (81%)
Writing library : XviD 65
Audio
ID : 1
Format : AC-3
Format/Info : Audio Coding 3
Mode extension : CM (complete main)
Format settings, Endianness : Big
Codec ID : 2000
Duration : 1h 25mn
Bit rate mode : Constant
Bit rate : 448 Kbps
Channel(s) : 6 channels
Channel positions : Front: L C R, Side: L R, LFE
Sampling rate : 48.0 KHz
Bit depth : 16 bits
Compression mode : Lossy
Stream size : 275 MiB (18%)
Alignment : Split accross interleaves
Interleave, duration : 42 ms (1.00 video frame)
Interleave, preload duration : 500 ms
Title : Dub

Скриншоты

Создавать темы 31-Янв-2016 14:03 (спустя 2 года 1 месяц)

Топик был перенесен из форума Зарубежные Новинки (HD*Rip/LQ, DVDRip) в форум Зарубежные Фильмы (HD*Rip/LQ, DVDRip, SATRip, VHSRip)
T_O_M
Яндекс.Метрика
Рейтинг@Mail.ru