Кунг-фу Панда 3 / Kung Fu Panda 3 (2016) WEBRip | D | Line

 

Создавать темы 06-Мар-2016 22:41

--Кунг-фу Панда 3-- Год выпуска: 2015
Страна: Китай, США
Жанр: Боевик, комедия, приключения, семейный
Продолжительность: 01:33:19
Перевод: Дублированный [Line] (без рекламы)-Режиссер: Алессандро Карлони, Дженнифер Ю
В ролях:
Джек Блэк, Брайан Крэнстон, Дастин Хоффман, Анджелина Джоли, Дж.К. Симмонс, Джеки Чан, Сет Роген, Люси Лью, Дэвид Кросс, Кейт Хадсон-Описание:
Воссоединившись со своим давно потерянным отцом, По отправляется в тайный рай для панд, где его ожидает встреча с множеством веселых сородичей. Однако вскоре злодей Кай начинает зачистку — он уничтожает кунг-фу мастеров по всему Китаю.
По предстоит сделать невозможное — обучить боевому искусству деревню, полную его веселых, неуклюжих собратьев, и тем самым превратить их в отряд кунг-фу панд.

Качество видео: WEBRip
Видео: Xvid, 720x288, ~1 798 Kbps
Аудио #1: MP3, 2 ch, 192 Kbps, CBR (Дубляж);
Субтитры: | Отсутствуют |

Знаете ли вы, что...

1. Для Дж. К. Симмонса, голосом которого говорит Кай, это будет первая премьера в 2016 году. Второй станет полнометражный мультфильм «Зверополис».
2. Отец По должен был говорить голосом Джейми Кэмпбелла Бауэра, однако на озвучивание утвердили Брайана Крэнстона. Необходимо отметить, что ни один из них не озвучивал отца По в конце фильма «Кунг-фу Панда 2» (2011). Там этот персонаж говорит голосом Фреда Татаскьора, который также озвучил мастера Шифу в компьютерных играх франшизы и в мультсериале «Кунг-фу Панда: Удивительные легенды» (2011).
3. Премьерный показ фильма был назначен на 23 декабря 2015 года, но был перенесён на более поздний срок, чтобы избежать конкуренции с выходящим фильмом «Звёздные войны: Пробуждение силы» (2015).
4. Кая должен был озвучивать Мадс Миккельсен, но не смог ввиду плотного графика съёмок. В фильме этот персонаж говорит голосом Дж. К. Симмонса.
5. Компании «DreamWorks Animation» и «Paramount Pictures» прекратили сотрудничество в 2012 году, так что это будет первый фильм серии, распространением которого занимается «20 Century Fox».
6. Режиссёр Дженнифер Ю наделила Кая сверхъестественными способностями. Вот как она впоследствии объясняла своё решение: «Тай Лунг был драчуном, лорд Шэнь отличался умом. Что было делать с отрицательным героем третьего фильма? Только дать ему сверхъестественные силы».
7. Это первый полнометражный американский анимационный фильм, созданный совместно с китайской студией. Треть фильма была создана в Китае, а всё остальное — на студии «DreamWorks Animation» в США.
8. В эпизоде, где По обсуждает игру с пандами, четверых животных озвучили дети Анджелины Джоли — сыновья Пакс и Нокс и дочери Шайло и Захара (все носят фамилию Джоли-Питт).

MediaInfo

Видео
Идентификатор                            : 0
Формат                                   : MPEG-4 Visual
Профиль формата                          : [email protected]
Параметр BVOP формата                    : Нет
Параметр QPel формата                    : Нет
Параметр GMC формата                     : Без точки перехода
Параметр матрицы формата                 : Default (H.263)
Идентификатор кодека                     : XVID
Идентификатор кодека/Подсказка           : XviD
Продолжительность                        : 1 ч. 33 м.
Битрейт                                  : 1798 Кбит/сек
Ширина                                   : 720 пикселей
Высота                                   : 288 пикселей
Соотношение сторон                       : 2,500
Частота кадров                           : 25,000 кадров/сек
Цветовое пространство                    : YUV
Субдискретизация насыщенности            : 4:2:0
Битовая глубина                          : 8 бит
Тип развёртки                            : Прогрессивная
Метод сжатия                             : С потерями
Бит/(Пиксели*Кадры)                      : 0.347
Размер потока                            : 1,17 Гбайт (90%)
Библиотека кодирования                   : Lavc56.0.101
Аудио
Идентификатор                            : 1
Формат                                   : MPEG Audio
Версия формата                           : Version 1
Профиль формата                          : Layer 3
Режим                                    : Joint stereo
Расширение режима                        : MS Stereo
Идентификатор кодека                     : 55
Идентификатор кодека/Подсказка           : MP3
Продолжительность                        : 1 ч. 33 м.
Вид битрейта                             : Постоянный
Битрейт                                  : 192 Кбит/сек
Каналы                                   : 2 канала
Частота                                  : 44,1 КГц
Метод сжатия                             : С потерями
Размер потока                            : 128 Мбайт (10%)
Выравнивание                             : Соединение по промежуткам
Продолжительность промежутка             : 26  мс. (0,65 видеокадр)
Время предзагрузки промежутка            : 26  мс.
Библиотека кодирования                   : LAME3.99.5

Скриншоты:

Яндекс.Метрика
Рейтинг@Mail.ru