Омерзительная восьмерка / The Hateful Eight (2015) BDRip 1080p | Line

 

Создавать темы 06-Мар-2016 21:25

Омерзительная восьмерка / The Hateful Eight Год выпуска: 2015
Страна: США
Жанр: триллер, драма, криминал, детектив, вестерн-Перевод: Дубляж - [Чистый звук]
Продолжительность: 02:47:44-Режиссер: Квентин Тарантино
В ролях:
Курт Рассел (John Ruth), Сэмюэл Л. Джексон (Major Marquis Warren), Тим Рот (Oswaldo Mobray), Майкл Мэдсен (Joe Gage), Дженнифер Джейсон Ли (Daisy Domergue), Уолтон Гоггинс (Sheriff Chris Mannix), Демиан Бишир (Bob), Брюс Дерн (General Sandy Smithers), Джеймс Паркс (O.B Jackson), Дэна Гурье (Minnie Mink), Зои Белл (Six-Horse Judy), Ли Хорсли (Ed)-Описание:
США после Гражданской войны. Легендарный охотник за головами Джон Рут по кличке Вешатель конвоирует заключенную. По пути к ним прибиваются еще несколько путешественников. Снежная буря вынуждает компанию искать укрытие в лавке на отшибе, где уже расположилось весьма пестрое общество: генерал конфедератов, мексиканец, ковбой... И один из них - не тот, за кого себя выдает.-Рейтинг:
Семпл
MPAA: R - Лицам до 17 лет обязательно присутствие взрослого-Качество: BDRip 1080p
Формат: MKV
Видео: AVC, 1920x704 (2.727), 8755 kbps, 23,976 fps, 0,270 bpp
Аудио: русский / AC3 / 2.0 / 48 kHz / 192 kbps / 16 bit ||
Навигация по главам: есть-Релиз от: Ворон / (Без рекламы), за дорогу спасибо Твистер-

ОтчетМедиаИнфо

General
Unique ID                                : 173832094310265692378425790873408030755 (0x82C6D7F4628D4092B5DF5CBE293EC823)
Complete name                            : D:Омерзительная восьмерка.BDRip.1080p. DUB.wtf_Ворон .mkv
Format                                   : Matroska
Format version                           : Version 4 / Version 2
File size                                : 10.5 GiB
Duration                                 : 2h 47mn
Overall bit rate                         : 8 949 Kbps
Movie name                               :
Encoded date                             : UTC 2016-03-06 08:58:46
Writing application                      : mkvmerge v6.7.0 ('Back to the Ground') 64bit built on Jan  8 2014 15:10:52
Writing library                          : libebml v1.3.0 + libmatroska v1.4.1
Attachment                               : Yes
Video
ID                                       : 1
Format                                   : AVC
Format/Info                              : Advanced Video Codec
Format profile                           : [email protected]
Format settings, CABAC                   : Yes
Format settings, ReFrames                : 5 frames
Codec ID                                 : V_MPEG4/ISO/AVC
Duration                                 : 2h 47mn
Bit rate                                 : 8 755 Kbps
Width                                    : 1 920 pixels
Height                                   : 704 pixels
Display aspect ratio                     : 2.727
Frame rate                               : 23.976 fps
Color space                              : YUV
Chroma subsampling                       : 4:2:0
Bit depth                                : 8 bits
Scan type                                : Progressive
Bits/(Pixel*Frame)                       : 0.270
Stream size                              : 10.1 GiB (96%)
Title                                    :
Writing library                          : x264 core 148 r2665 a01e339
Encoding settings                        : cabac=1 / ref=5 / deblock=1:0:0 / analyse=0x3:0x133 / me=umh / subme=7 / psy=1 / psy_rd=1.00:0.00 / mixed_ref=1 / me_range=16 / chroma_me=1 / trellis=1 / 8x8dct=1 / cqm=0 / deadzone=21,11 / fast_pskip=0 / chroma_qp_offset=-2 / threads=18 / lookahead_threads=3 / sliced_threads=0 / nr=0 / decimate=1 / interlaced=0 / bluray_compat=0 / constrained_intra=0 / bframes=3 / b_pyramid=2 / b_adapt=1 / b_bias=0 / direct=1 / weightb=1 / open_gop=0 / weightp=2 / keyint=250 / keyint_min=23 / scenecut=40 / intra_refresh=0 / rc_lookahead=40 / rc=2pass / mbtree=1 / bitrate=8755 / ratetol=1.0 / qcomp=0.60 / qpmin=0 / qpmax=69 / qpstep=4 / cplxblur=20.0 / qblur=0.5 / ip_ratio=1.40 / aq=1:1.00
Language                                 : Russian
Default                                  : Yes
Forced                                   : No
Audio
ID                                       : 2
Format                                   : AC-3
Format/Info                              : Audio Coding 3
Mode extension                           : CM (complete main)
Codec ID                                 : A_AC3
Duration                                 : 2h 47mn
Bit rate mode                            : Constant
Bit rate                                 : 192 Kbps
Channel(s)                               : 2 channels
Channel positions                        : Front: L R
Sampling rate                            : 48.0 KHz
Bit depth                                : 16 bits
Compression mode                         : Lossy
Stream size                              : 230 MiB (2%)
Title                                    : Без рекламы автор Твистер
Language                                 : Russian
Default                                  : Yes
Forced                                   : No
Menu
00:00:00.000                             : en:00:00:00.000
00:11:16.092                             : en:00:11:16.092
00:14:55.561                             : en:00:14:55.561
00:35:02.309                             : en:00:35:02.309
00:43:21.057                             : en:00:43:21.057
01:25:18.405                             : en:01:25:18.405
01:29:54.306                             : en:01:29:54.306
01:36:28.533                             : en:01:36:28.533
01:38:05.421                             : en:01:38:05.421
01:42:22.219                             : en:01:42:22.219
01:58:15.755                             : en:01:58:15.755
01:59:30.330                             : en:01:59:30.330
02:02:24.087                             : en:02:02:24.087
02:06:18.821                             : en:02:06:18.821
02:08:36.834                             : en:02:08:36.834
02:11:51.862                             : en:02:11:51.862
02:29:52.025                             : en:02:29:52.025
02:34:58.706                             : en:02:34:58.706
02:37:41.869                             : en:02:37:41.869
02:41:12.913                             : en:02:41:12.913
02:43:13.492                             : en:02:43:13.492
02:45:57.072                             : en:02:45:57.072

Скриншоты:

Яндекс.Метрика
Рейтинг@Mail.ru