[ Сегодня на трекере фрилич! Идет свободное скачивание без начисления Download ]

Ставка на любовь (2015) WEB-DL 720p | iTunes

 

Создавать темы 29-Фев-2016 21:25

Ставка на любовь
Год выхода: 2015
Жанр: комедия, мелодрама
Режиссер: Артем Михалков
В ролях:
Ованнес Азоян, Андрей Бурковский, Катерина Шпица, Ян Цапник, Вадим Андреев, Ольга Тумайкина, Александр Ревва, Дмитрий Хрусталев, Ирина Чипиженко, Алла Михеева
О фильме:
Костя и Давид — друзья детства, и вот спустя годы им, наконец, суждено проверить дружбу на прочность. Давид собирается сделать предложение своей возлюбленной, Анне, а Костя хочет выйти в финал международного чемпионата по покеру. Два, казалось бы, совершенно несвязанных события, становятся решающими в жизни друзей, так как Давиду придется играть в покер, а Косте — спасать свадьбу друга! Смогут ли они оставаться собой и спасти положение, поменявшись местами?


Выпущено: Россия
Продолжительность: 01:32:01
Озвучивание: Оригинал [iTunes]
Файл
Формат: MKV
Качество: WEB-DL 720p
Видео: MPEG-4 AVC, 3943 kb/s, 1280x536
Аудио: AC3, 384 kb/s (6 ch)

MI

Format                         : Matroska
Format version                 : Version 4 / Version 2
File size                      : 2.84 GiB
Duration                       : 1h 32mn
Overall bit rate               : 4 414 Kbps
Encoded date                   : UTC 2016-02-28 19:05:48
Writing application            : mkvmerge v8.3.0 ('Over the Horizon') 64bit
Writing library                : libebml v1.3.1 + libmatroska v1.4.2
Video
ID                             : 1
Format                         : AVC
Format/Info                    : Advanced Video Codec
Format profile                 : [email protected]
Format settings, CABAC         : No
Format settings, ReFrames      : 2 frames
Codec ID                       : V_MPEG4/ISO/AVC
Duration                       : 1h 32mn
Bit rate                       : 3 943 Kbps
Width                          : 1 280 pixels
Height                         : 536 pixels
Display aspect ratio           : 2.40:1
Frame rate mode                : Constant
Frame rate                     : 24.000 fps
Color space                    : YUV
Chroma subsampling             : 4:2:0
Bit depth                      : 8 bits
Scan type                      : Progressive
Bits/(Pixel*Frame)             : 0.239
Stream size                    : 2.53 GiB (89%)
Language                       : English
Default                        : Yes
Forced                         : No
Color range                    : Limited
Color primaries                : BT.709
Transfer characteristics       : BT.709
Matrix coefficients            : BT.709
Audio
ID                             : 2
Format                         : AC-3
Format/Info                    : Audio Coding 3
Mode extension                 : CM (complete main)
Format settings, Endianness    : Big
Codec ID                       : A_AC3
Duration                       : 1h 32mn
Bit rate mode                  : Constant
Bit rate                       : 384 Kbps
Channel(s)                     : 6 channels
Channel positions              : Front: L C R, Side: L R, LFE
Sampling rate                  : 48.0 KHz
Bit depth                      : 16 bits
Compression mode               : Lossy
Stream size                    : 253 MiB (9%)
Language                       : Russian
Default                        : Yes
Forced                         : No
Menu
00:00:00.000                   : en:Глава 1
00:06:03.458                   : en:Глава 2
00:11:13.041                   : en:Глава 3
00:16:42.707                   : en:Глава 4
00:23:10.290                   : en:Глава 5
00:29:08.915                   : en:Глава 6
00:34:10.998                   : en:Глава 7
00:39:49.664                   : en:Глава 8
00:45:27.955                   : en:Глава 9
00:51:25.621                   : en:Глава 10
00:56:42.246                   : en:Глава 11
01:01:55.912                   : en:Глава 12
01:07:32.287                   : en:Глава 13
01:13:08.453                   : en:Глава 14
01:18:57.036                   : en:Глава 15
01:24:27.036                   : en:Глава 16

Скриншоты:

Яндекс.Метрика
Рейтинг@Mail.ru