Обратная сторона Луны [S01] (2012,Фантастика, триллер, драма, криминал, детектив) HDRip | КПК

 

Создавать темы 28-Фев-2016 18:25

--Обратная сторона Луны [S01] (2012) HDRip --Оригинальное название: Обратная сторона Луны
Год выхода: 2012-Жанр: Фантастика, триллер, драма, криминал, детектив-Режиссер: Александр Котт-В ролях: Павел Деревянко, Светлана Смирнова-Марцинкевич, Иван Шибанов, Карина Разумовская, Евгений Богомолов, Олег Алмазов, Дмитрий Гусев, Александр Ляпин, Сергей Беляев, Сергей Галахов, Ирина Марцинкевич, Ирина Нарбекова, Анна Корнеева, Анна Цуканова-Котт, Сергей Карякин, Максим Костромыкин, Александр Сирин, Татьяна Масс, Андрюс Паулавичюс, Светлана Солянкина, Юрий Гурьев, Прадьюмна Чаттерджи, Денис Курочка, Семен Трескунов, Роман Дервоед, Артур Федорович-О фильме:
Вот уже три года старший лейтенант полиции Михаил Соловьев ловит Маньяка, который убивает молодых женщин. Остался последний шаг - взять убийцу. В день ареста преступника Михаил узнает, что умер его отец. Во время задержания, бандит сбивает Соловьева автомобилем. Полицейский приходит в себя в больнице, в 1979 году, в теле своего отца. Герой в шоке от происходящего. В больнице парень знакомится с медсестрой Катей, которая искренне о нем заботится. Вскоре Михаил знакомится с сослуживцем - отец тоже работал в милиции. В прошлом Михаил сталкивается с 10-летним самим собой, а также со своей мамой, которая считает его своим мужем. Вскоре Соловьев понимает, что Маньяк уже орудует здесь. Они перенеслись в прошлое одновременно. Теперь Михаилу придется ловить его здесь, в практически незнакомой обстановке, без друзей и знакомых.- -Страна: Россия
Студия: ООО ПЦ "СРЕДА"
Продолжительность: 1 x 01:40:52, 15 x ~ 00:54:00
Перевод: Не требуется
Файл
Формат: MP4
Качество: HDRip | КПК
Видео: MPEG-4 AVC (x264), 640x360, ~500 kbps, 23.976 fps
Аудио: AAC LC, 48.0 KHz, 2 ch, 128 Kbps
Субтитры: Нет
Семпл

Скриншоты

MI

Complete name : E:KinoObratnaya.Storona.Luny.AVC.KPK.GFObratnaya.Storona.Luny.S01.2012.AVC.HDRip.KPK.GFObratnaya.Storona.Luny.s01e02.2012.AVC.HDRip.KPK.GF.mp4
Format : MPEG-4
Codec ID : M4V
File size : 245 MiB
Duration : 54mn 17s
Overall bit rate mode : Variable
Overall bit rate : 632 Kbps
Writing application : Lavf53.19.0
Video
ID : 1
Format : AVC
Format/Info : Advanced Video Codec
Format profile : [email protected]
Format settings, CABAC : Yes
Format settings, ReFrames : 8 frames
Codec ID : avc1
Codec ID/Info : Advanced Video Coding
Duration : 54mn 17s
Source duration : 25mn 39s
Bit rate : 500 Kbps
Width : 640 pixels
Height : 360 pixels
Display aspect ratio : 16:9
Frame rate mode : Constant
Frame rate : 23.976 fps
Color space : YUV
Chroma subsampling : 4:2:0
Bit depth : 8 bits
Scan type : Progressive
Bits/(Pixel*Frame) : 0.091
Stream size : 194 MiB (79%)
Source stream size : 194 MiB (79%)
Writing library : x264 core 130 r2273 b3065e6
Encoding settings : cabac=1 / ref=8 / deblock=1:-2:-2 / analyse=0x3:0x133 / me=umh / subme=10 / psy=1 / psy_rd=1.00:0.00 / mixed_ref=1 / me_range=24 / chroma_me=1 / trellis=2 / 8x8dct=1 / cqm=0 / deadzone=21,11 / fast_pskip=1 / chroma_qp_offset=-2 / threads=3 / lookahead_threads=1 / sliced_threads=0 / nr=0 / decimate=0 / interlaced=0 / bluray_compat=0 / constrained_intra=0 / bframes=8 / b_pyramid=2 / b_adapt=2 / b_bias=0 / direct=3 / weightb=1 / open_gop=0 / weightp=2 / keyint=240 / keyint_min=121 / scenecut=40 / intra_refresh=0 / rc_lookahead=40 / rc=2pass / mbtree=1 / bitrate=500 / ratetol=1.0 / qcomp=0.60 / qpmin=0 / qpmax=69 / qpstep=4 / cplxblur=20.0 / qblur=0.5 / ip_ratio=1.40 / aq=1:1.00
mdhd_Duration : 3257218
Audio
ID : 2
Format : AAC
Format/Info : Advanced Audio Codec
Format profile : LC
Codec ID : 40
Duration : 54mn 17s
Bit rate mode : Variable
Bit rate : 128 Kbps
Channel(s) : 2 channels
Channel positions : Front: L R
Sampling rate : 48.0 KHz
Compression mode : Lossy
Stream size : 49.6 MiB (20%)
Яндекс.Метрика
Рейтинг@Mail.ru