Боевой механизм / Swap (2016) BDRip 720p | L2

 

Создавать темы 28-Фев-2016 09:15

Боевой механизм / SwapГод выхода: 2016
Жанр: фантастика, боевик, триллер
Режиссер: Тимоти Вудворд мл.
В ролях:
Том Сайзмор, Джонни Месснер, Микки Рурк, Тейлор Коул, Джон Фу, Майкл Паре, Крис Дэймон, Каллен Дж. Чэмберс, Тимоти Вудворд мл., Джон Лофлин
О фильме:
Ближайшее будущее, биотехнологии достигли достаточного уровня, чтобы интегрировать воедино человеческую плоть и боевую роботизированную броню. В секретных лабораториях созданы первые практически непобедимые солдаты-киборги. Полицейский детектив, расследуя убийство своего сына - жертвы теракта, решает перепрограммировать киборгов и направить их против виновной террористической группировки. Однако, вирус, которым он заражает командную систему биороботов превращает их в бесжалостных убийц всего живого вокруг...


Выпущено: США / Puppy Entertainment, Status Media & Entertainment
Продолжительность: 01:30:59
Озвучивание: Любительское (двухголосное) [Parovoz Production]
Примечание: Релиз без рекламы.
Файл
Формат: MKV
Качество: BDRip 720p
Видео: MPEG-4 AVC, 5368 kb/s, 1280x544
Аудио: Russian: AC3, 192 kb/s (2 ch) / English: DTS, 1509 kb/s (6 ch)

MI

Format                         : Matroska
Format version                 : Version 2
File size                      : 4.49 GiB
Duration                       : 1h 30mn
Overall bit rate               : 7 071 Kbps
Encoded date                   : UTC 2016-02-27 21:57:38
Writing application            : mkvmerge v7.8.0 ('River Man') 32bit built on Apr  3 2015 12:11:22
Writing library                : libebml v1.3.1 + libmatroska v1.4.2
Video
ID                             : 1
Format                         : AVC
Format/Info                    : Advanced Video Codec
Format profile                 : [email protected]
Format settings, CABAC         : Yes
Format settings, ReFrames      : 5 frames
Codec ID                       : V_MPEG4/ISO/AVC
Duration                       : 1h 30mn
Bit rate                       : 5 368 Kbps
Width                          : 1 280 pixels
Height                         : 544 pixels
Display aspect ratio           : 2.35:1
Frame rate mode                : Constant
Frame rate                     : 23.976 fps
Color space                    : YUV
Chroma subsampling             : 4:2:0
Bit depth                      : 8 bits
Scan type                      : Progressive
Bits/(Pixel*Frame)             : 0.322
Stream size                    : 3.32 GiB (74%)
Writing library                : x264 core 148 r2665 a01e339
Encoding settings              : cabac=1 / ref=5 / deblock=1:0:0 / analyse=0x3:0x133 / me=umh / subme=7 / psy=1 / psy_rd=1.00:0.00 / mixed_ref=1 / me_range=16 / chroma_me=1 / trellis=1 / 8x8dct=1 / cqm=0 / deadzone=21,11 / fast_pskip=0 / chroma_qp_offset=-2 / threads=17 / lookahead_threads=2 / sliced_threads=0 / nr=0 / decimate=1 / interlaced=0 / bluray_compat=0 / constrained_intra=0 / bframes=3 / b_pyramid=2 / b_adapt=1 / b_bias=0 / direct=1 / weightb=1 / open_gop=0 / weightp=2 / keyint=250 / keyint_min=23 / scenecut=40 / intra_refresh=0 / rc_lookahead=40 / rc=2pass / mbtree=1 / bitrate=5368 / ratetol=1.0 / qcomp=0.60 / qpmin=0 / qpmax=69 / qpstep=4 / cplxblur=20.0 / qblur=0.5 / ip_ratio=1.40 / aq=1:1.00
Language                       : English
Default                        : Yes
Forced                         : No
Audio #1
ID                             : 2
Format                         : AC-3
Format/Info                    : Audio Coding 3
Mode extension                 : CM (complete main)
Format settings, Endianness    : Big
Codec ID                       : A_AC3
Duration                       : 1h 30mn
Bit rate mode                  : Constant
Bit rate                       : 192 Kbps
Channel(s)                     : 2 channels
Channel positions              : Front: L R
Sampling rate                  : 48.0 KHz
Bit depth                      : 16 bits
Compression mode               : Lossy
Stream size                    : 125 MiB (3%)
Language                       : Russian
Default                        : Yes
Forced                         : No
Audio #2
ID                             : 3
Format                         : DTS
Format/Info                    : Digital Theater Systems
Mode                           : 16
Format settings, Endianness    : Big
Codec ID                       : A_DTS
Duration                       : 1h 30mn
Bit rate mode                  : Constant
Bit rate                       : 1 509 Kbps
Channel(s)                     : 6 channels
Channel positions              : Front: L C R, Side: L R, LFE
Sampling rate                  : 48.0 KHz
Bit depth                      : 24 bits
Compression mode               : Lossy
Stream size                    : 982 MiB (21%)
Language                       : English
Default                        : No
Forced                         : No

Скриншоты:

Яндекс.Метрика
Рейтинг@Mail.ru