[ Сегодня на трекере фрилич! Идет свободное скачивание без начисления Download ]

Минус один (серии 1-4 из 4) (2014) WEB-DLRip 720p

 

Создавать темы 27-Фев-2016 01:44

-Минус один- Производство: Россия / "Star Media"
Жанр: мелодрама
Режиссер: Игорь Ройзман
Актеры: Иван Стебунов, Татьяна Казючиц, Артём Григорьев, Ольга Дибцева, Мария Болонкина, Афина Кондрашова и др.
Описание:
Лена и Вася счастливо женаты, у них двое детей. Но бытовой конфликт приводит к череде событий, заканчивающихся грандиозной ссорой супругов. В пылу скандала они заявляют, что прекрасно проживут друг без друга. И получают такую возможность в самом буквальном смысле: теперь Лена живет в мире, в котором нет Васи, а Вася — в мире, в котором нет Лены. Все остальное остается неизменным: и у Лены и у Васи есть дети, соседи и родственники — по комплекту для каждого из супругов. Лена и Вася находят способ связи — это один из телевизионных каналов, по которому они могут видеть друг друга. Окрыленные свободой, супруги начинают жить отдельно: Вася нянчит детей, Лена ищет работу. У обоих завязываются свои романтические отношения. Но очень скоро они понимают, что никто не может заменить им друг друга. Теперь Лене и Васе предстоит найти способ воссоединения… Если это вообще возможно.-Продолжительность: ~00:45:00 серия
Качество видео: WEB-DLRip
Видео: AVC/H.264, 1280x720 (16:9), ~1800 Kbps
Аудио: AC3, 2 ch, 192 Kbps

MediaInfo:

Общее
Уникальный идентификатор                 : 231312905972170724224071311628848140371 (0xAE053EC64FE912BC8F3834228FD91053)
Полное имя                               : F:\DOWNLOADS\Минус один (2014) WEB-DLRip 720\Минус один - 01 серия.mkv
Формат                                   : Matroska
Версия формата                           : Version 2
Размер файла                             : 642 Мбайт
Продолжительность                        : 45 м.
Режим общего битрейта                    : Переменный
Общий поток                              : 1992 Кбит/сек
Дата кодирования                         : UTC 2016-02-24 16:56:21
Программа кодирования                    : mkvmerge v7.8.0 ("River Man") 32bit built on Apr  3 2015 12:11:22
Библиотека кодирования                   : libebml v1.3.1 + libmatroska v1.4.2
Видео
Идентификатор                            : 1
Формат                                   : AVC
Формат/Информация                        : Advanced Video Codec
Профиль формата                          : [url=mailto:[email protected]][email protected][/url]
Параметр CABAC формата                   : Да
Параметр ReFrames формата                : 3 кадра
Идентификатор кодека                     : V_MPEG4/ISO/AVC
Продолжительность                        : 45 м.
Вид битрейта                             : Переменный
Битрейт                                  : 1800 Кбит/сек
Максимальный битрейт                     : 40,0 Мбит/сек
Ширина                                   : 1280 пикселей
Высота                                   : 720 пикселей
Соотношение сторон                       : 16:9
Режим частоты кадров                     : Постоянный
Частота кадров                           : 25,000 кадров/сек
Цветовое пространство                    : YUV
Субдискретизация насыщенности            : 4:2:0
Битовая глубина                          : 8 бит
Тип развёртки                            : Прогрессивная
Бит/(Пиксели*Кадры)                      : 0.078
Размер потока                            : 567 Мбайт (88%)
Библиотека кодирования                   : x264 core 142 r2389 956c8d8
Настройки программы                      : cabac=1 / ref=3 / deblock=1:0:0 / analyse=0x3:0x133 / me=umh / subme=7 / psy=1 / psy_rd=1.00:0.00 / mixed_ref=1 / me_range=32 / chroma_me=1 / trellis=2 / 8x8dct=1 / cqm=0 / deadzone=21,11 / fast_pskip=1 / chroma_qp_offset=-2 / threads=12 / lookahead_threads=2 / sliced_threads=0 / nr=0 / decimate=1 / interlaced=0 / bluray_compat=0 / constrained_intra=0 / bframes=0 / weightp=0 / keyint=75 / keyint_min=26 / scenecut=40 / intra_refresh=0 / rc_lookahead=50 / rc=2pass / mbtree=0 / bitrate=1800 / ratetol=1.0 / qcomp=0.20 / qpmin=10 / qpmax=51 / qpstep=4 / cplxblur=20.0 / qblur=0.5 / vbv_maxrate=2000 / vbv_bufsize=2000 / nal_hrd=none / filler=0 / ip_ratio=1.40 / aq=1:1.0
Default                                  : Да
Forced                                   : Нет
Цветовой диапазон                        : Limited
Основные цвета                           : BT.709
Характеристики трансфера                 : BT.709
Коэффициенты матрицы                     : BT.709
Аудио
Идентификатор                            : 2
Формат                                   : AC-3
Формат/Информация                        : Audio Coding 3
Расширение режима                        : CM (complete main)
Параметр Endianness формата              : Big
Идентификатор кодека                     : A_AC3
Продолжительность                        : 45 м.
Вид битрейта                             : Постоянный
Битрейт                                  : 192 Кбит/сек
Каналы                                   : 2 канала
Расположение каналов                     : Front: L R
Частота                                  : 44,1 КГц
Метод сжатия                             : С потерями
Размер потока                            : 61,9 Мбайт (10%)
Default                                  : Да
Forced                                   : Нет

Скриншоты:

Яндекс.Метрика
Рейтинг@Mail.ru