[ Сегодня на трекере фрилич! Идет свободное скачивание без начисления Download ]

Иван Царевич и Серый Волк 3 (2015) BDRip-AVC | Лицензия

 

Создавать темы 25-Фев-2016 22:26

Информация о фильме
Название: Иван Царевич и Серый Волк 3
Год выпуска: 2015
Страна: Россия
Жанр: мультфильм, приключения, семейный-Перевод: Оригинальный [Лицензия]
Продолжительность: 01:17:06-Режиссер: Дарина Шмидт
В ролях: Никита Ефремов (Иван Царевич, озвучка), Иван Охлобыстин (Царь, озвучка), Михаил Боярский (Кот, озвучка), Александр Боярский (серый волк, озвучка), Татьяна Бунина (Василиса, озвучка), Михаил Хрусталев (Пугало Пал Палыч, озвучка), Дмитрий Высоцкий (Тонкий, озвучка), Олег Куликович (Толстый, озвучка), Анатолий Петров (Соловей, озвучка), Роман Никитин (Кеша, озвучка), Константин Бронзит (Щука, озвучка)-Описание:
Царь Тридевятого царства, в честь своего 150-летия решил, что с него хватит - пора на заслуженный отдых. «Я устал. Я ухожу», - заявил самодержец и с удочкой и ведёрком удалился в деревенскую глушь. А оберегать государство остались Иван с Серым Волком. Вот только Василиса, жена Ивана, заявила, что свадебного путешествия у неё не было, заграницу она не видела, «постить» в инстаграм решительно нечего и вообще.
Иван спорить не стал, а вместе с Василисой, Котом - ученым и Серым Волком, погрузился на ковер-самолет и отправился в путь. А за главного в стране герои оставили самое обычное огородное пугало... Но пока компания шаталась по Миланам и Парижам, Пугало ожило и начало наводить свои порядки в Тридевятом царстве...-Рейтинг:
-Качество: BDRip-AVC
Формат: MKV
Видео: AVC, 1024x576 (16:9), 2260 kbps, 24 fps, 0,160 bpp
Аудио: AC3 / 5.1 / 48 kHz / 448 kbps / 16 bit-Релиз от: by schultz

ОтчетМедиаИнфо

General
Unique ID                                : 230378406617517907463206006316320009259 (0xAD51446633E4F279A4DC91F58579AC2B)
Complete name                            : D:downloadIvan.Tcarevich.I.Seriy.VoLK.3.2O15.BDRip-AVC by schultz R.G.Resident.mkv
Format                                   : Matroska
Format version                           : Version 2
File size                                : 1.46 GiB
Duration                                 : 1h 17mn
Overall bit rate                         : 2 706 Kbps
Encoded date                             : UTC 2016-02-25 16:44:34
Writing application                      : mkvmerge v7.8.0 ('River Man') 32bit built on Apr  3 2015 12:11:22
Writing library                          : libebml v1.3.1 + libmatroska v1.4.2
Video
ID                                       : 1
Format                                   : AVC
Format/Info                              : Advanced Video Codec
Format profile                           : [email protected]
Format settings, CABAC                   : Yes
Format settings, ReFrames                : 12 frames
Codec ID                                 : V_MPEG4/ISO/AVC
Duration                                 : 1h 17mn
Bit rate                                 : 2 260 Kbps
Width                                    : 1 024 pixels
Height                                   : 576 pixels
Display aspect ratio                     : 16:9
Frame rate                               : 24.000 fps
Color space                              : YUV
Chroma subsampling                       : 4:2:0
Bit depth                                : 8 bits
Scan type                                : Progressive
Bits/(Pixel*Frame)                       : 0.160
Stream size                              : 1.19 GiB (81%)
Writing library                          : x264 core 146 r2538 121396c
Encoding settings                        : cabac=1 / ref=12 / deblock=1:-3:-3 / analyse=0x3:0x113 / me=umh / subme=11 / psy=1 / psy_rd=1.00:0.00 / mixed_ref=1 / me_range=48 / chroma_me=1 / trellis=2 / 8x8dct=1 / cqm=0 / deadzone=21,11 / fast_pskip=0 / chroma_qp_offset=-2 / threads=12 / lookahead_threads=3 / sliced_threads=0 / nr=0 / decimate=1 / interlaced=0 / bluray_compat=0 / constrained_intra=0 / bframes=13 / b_pyramid=2 / b_adapt=2 / b_bias=0 / direct=3 / weightb=1 / open_gop=0 / weightp=2 / keyint=240 / keyint_min=23 / scenecut=40 / intra_refresh=0 / rc_lookahead=40 / rc=2pass / mbtree=1 / bitrate=2260 / ratetol=1.0 / qcomp=0.60 / qpmin=0 / qpmax=69 / qpstep=4 / cplxblur=20.0 / qblur=0.5 / vbv_maxrate=14000 / vbv_bufsize=14000 / nal_hrd=none / filler=0 / ip_ratio=1.40 / aq=1:1.00
Default                                  : Yes
Forced                                   : No
Audio
ID                                       : 2
Format                                   : AC-3
Format/Info                              : Audio Coding 3
Mode extension                           : CM (complete main)
Codec ID                                 : A_AC3
Duration                                 : 1h 17mn
Bit rate mode                            : Constant
Bit rate                                 : 448 Kbps
Channel(s)                               : 6 channels
Channel positions                        : Front: L C R, Side: L R, LFE
Sampling rate                            : 48.0 KHz
Bit depth                                : 16 bits
Compression mode                         : Lossy
Stream size                              : 247 MiB (17%)
Default                                  : Yes
Forced                                   : No

Скриншоты

Яндекс.Метрика
Рейтинг@Mail.ru