[ Сегодня на трекере фрилич! Идет свободное скачивание без начисления Download ]

Иван Царевич и Серый Волк 3 (2015) BDRip 720p

 

Создавать темы 25-Фев-2016 22:16

-Иван Царевич и Серый Волк 3«Любить страшно»- Год выпуска: 2015
Выпущено: Россия
Жанр: мультфильм, приключения, семейный
Продолжительность: 01:17:06
Перевод: Не требуется
Оригинальная аудиодорожка: русский
Cубтитры: Нет
Режиссёр: Дарина Шмидт
В ролях: Никита Ефремов, Иван Охлобыстин, Михаил Боярский, Артур Смольянинов, Татьяна Бунина, Михаил Хрусталев, Дмитрий Высоцкий, Олег Куликович, Анатолий Петров, Роман Никитин
Описание: Царь Тридевятого царства, в честь своего 150-летия решил, что с него хватит — пора на заслуженный отдых. «Я устал. Я ухожу», — заявил самодержец и с удочкой и ведёрком удалился в деревенскую глушь. А оберегать государство остались Иван с Серым Волком. Вот только Василиса, жена Ивана, заявила, что свадебного путешествия у неё не было, заграницу она не видела, «постить» в инстаграм решительно нечего и вообще.
Иван спорить не стал, а вместе с Василисой, Котом — ученым и Серым Волком, погрузился на ковер-самолет и отправился в путь. А за главного в стране герои оставили самое обычное огородное пугало… Но пока компания шаталась по Миланам и Парижам, Пугало ожило и начало наводить свои порядки в Тридевятом царстве…--Качество видео: BDRip 720p | Murtini
Формат видео: MKV
Видео: MPEG-4 AVC Video 3083 kbps 1280x720p / 24,000 fps / 16:9 / High Profile 4.1
Аудио: Русский: 48 kHz, DTS, 3/2 (L,C,R,l,r) + LFE ch, ~1510.00 kbps avg

Исходник

IVAN_TZAREVICH_3_HDCLUB

MediaInfo / Log.x264

Уникальный идентификатор : 251837973952564930949464297635867872957 (0xBD763AC19EB4167597D852C862E94EBD)
Полное имя : E:V.tempIVAN_TZAREVICH_3_HDCLUBIvan.Tzarevich.i.Seriy.Volk.3.2015.BluRay.720p.mkv
Формат : Matroska
Версия формата : Version 4 / Version 2
Размер файла : 2,48 Гбайт
Продолжительность : 1 ч. 17 м.
Общий поток : 4595 Кбит/сек
Название фильма : Ivan.Tzarevich.i.Seriy.Volk.3.2015.BluRay.720p-Murtini
Дата кодирования : UTC 2016-02-25 11:40:13
Программа кодирования : mkvmerge v7.7.0 ('Six Voices') 32bit built on Feb 28 2015 23:23:00
Библиотека кодирования : libebml v1.3.1 + libmatroska v1.4.2
Обложка : Yes
Attachments : cover.jpg
Видео
Идентификатор : 1
Формат : AVC
Формат/Информация : Advanced Video Codec
Профиль формата : [email protected]
Параметр CABAC формата : Да
Параметр ReFrames формата : 9 кадров
Идентификатор кодека : V_MPEG4/ISO/AVC
Продолжительность : 1 ч. 17 м.
Битрейт : 3083 Кбит/сек
Ширина : 1280 пикселей
Высота : 720 пикселей
Соотношение сторон : 16:9
Режим частоты кадров : Постоянный
Частота кадров : 24,000 кадра/сек
Цветовое пространство : YUV
Субдискретизация насыщенности : 4:2:0
Битовая глубина : 8 бит
Тип развёртки : Прогрессивная
Бит/(Пиксели*Кадры) : 0.139
Размер потока : 1,66 Гбайт (67%)
Заголовок : Ivan.Tzarevich.i.Seriy.Volk.3.2015.BluRay.720p-Murtini
Библиотека кодирования : x264 core 148 r2638 7599210
Настройки программы : cabac=1 / ref=9 / deblock=1:-2:-1 / analyse=0x3:0x133 / me=umh / subme=10 / psy=1 / psy_rd=1.05:0.10 / mixed_ref=1 / me_range=32 / chroma_me=1 / trellis=2 / 8x8dct=1 / cqm=0 / deadzone=21,11 / fast_pskip=0 / chroma_qp_offset=-4 / threads=6 / lookahead_threads=1 / sliced_threads=0 / nr=0 / decimate=1 / interlaced=0 / bluray_compat=0 / constrained_intra=0 / bframes=9 / b_pyramid=2 / b_adapt=2 / b_bias=0 / direct=1 / weightb=1 / open_gop=0 / weightp=2 / keyint=230 / keyint_min=21 / scenecut=40 / intra_refresh=0 / rc_lookahead=60 / rc=crf / mbtree=0 / crf=15.0 / qcomp=0.70 / qpmin=0 / qpmax=69 / qpstep=4 / vbv_maxrate=30000 / vbv_bufsize=40000 / crf_max=0.0 / nal_hrd=none / filler=0 / ip_ratio=1.35 / pb_ratio=1.25 / aq=2:0.90
Язык : English
Default : Да
Forced : Нет
Аудио
Идентификатор : 2
Формат : DTS
Формат/Информация : Digital Theater Systems
Режим : 16
Параметр Endianness формата : Big
Идентификатор кодека : A_DTS
Продолжительность : 1 ч. 17 м.
Вид битрейта : Постоянный
Битрейт : 1510 Кбит/сек
Каналы : 6 каналов
Расположение каналов : Front: L C R, Side: L R, LFE
Частота : 48,0 КГц
Частота кадров : 93,750 кадра/сек (512 spf)
Битовая глубина : 24 бит
Метод сжатия : С потерями
Размер потока : 833 Мбайт (33%)
Заголовок : [email protected]
Язык : Russian
Default : Да
Forced : Нет
Меню
00:00:00.000 : en:00:00:00.000
00:06:37.958 : en:00:06:37.958
00:10:39.375 : en:00:10:39.375
00:15:50.083 : en:00:15:50.083
00:23:38.667 : en:00:23:38.667
00:31:42.042 : en:00:31:42.042
00:37:36.667 : en:00:37:36.667
00:43:48.208 : en:00:43:48.208
00:51:43.583 : en:00:51:43.583
00:55:48.708 : en:00:55:48.708
01:01:21.250 : en:01:01:21.250
01:11:35.625 : en:01:11:35.625
x264 [info]: frame I:1196 Avg QP:10.02 size:172795 PSNR Mean Y:53.88 U:57.72 V:57.71 Avg:54.72 Global:53.78
x264 [info]: frame P:29589 Avg QP:13.00 size: 30045 PSNR Mean Y:52.08 U:56.30 V:56.27 Avg:52.87 Global:51.76
x264 [info]: frame B:80256 Avg QP:14.37 size: 8567 PSNR Mean Y:52.11 U:56.94 V:56.90 Avg:52.91 Global:51.54
x264 [info]: consecutive B-frames: 5.8% 5.0% 11.0% 35.6% 16.3% 10.8% 3.9% 3.0% 2.8% 5.9%=

Скриншоты

Яндекс.Метрика
Рейтинг@Mail.ru