Зеленая Миля / The Green Mile (1999) BDRip [H.264/1080p-LQ]

 

Создавать темы 12-Фев-2016 10:23

- Зеленая Миля / The Green Mile (1999) BDRip [H.264/1080p-LQ]- Производство: США, Великобритания / Warner Bros.
Жанр: Фэнтези, Драма, Криминал, Детектив
Режиссер: Фрэнк Дарабонт
Актеры: Том Хэнкс, Дэвид Морс, Бонни Хант, Майкл Кларк Дункан, Джеймс Кромуэлл, Майкл Джетер, Грэхэм Грин, Даг Хатчинсон, Сэм Роквэлл, Бэрри Пеппер
Описание:
Обвиненный в страшном преступлении, Джон Коффи оказывается в блоке смертников тюрьмы «Холодная гора». Вновь прибывший обладал поразительным ростом и был пугающе спокоен, что, впрочем, никак не влияло на отношение к нему начальника блока Пола Эджкомба, привыкшего исполнять приговор.
Гигант удивил всех позже, когда выяснилось, что он обладает невероятной магической силой…

Возраст 16+
Дата мировой премьеры: 6 декабря 1999
Дата премьеры в России: 18 апреля 2000
Дата выхода Blu-ray релиза: 10 января, 2012
Продолжительность: 03:08:40
Качество видео: BDRip (1080p-LQ)
Перевод: Дублированный
Язык субтитров: Русский, Английский
Вид субтитров: Вшитые (отключаемые)
Видео: MPEG-4/AVC/H.264, 1920x1080 (16:9), ~3 928 Kbps, 23.976 fps
Аудио: AC-3, 384 kbps, 6ch, 48 kHz
Семпл: Скачать

Mediainfo:

General
Unique ID                                : 225843155513631422555031037366122490908 (0xA9E7CF418B125462AF948B924F0AAC1C)
Format                                   : Matroska
Format version                           : Version 2
File size                                : 5.70 GiB
Duration                                 : 3h 8mn
Overall bit rate                         : 4 326 Kbps
Encoded date                             : UTC 2016-01-25 14:28:34
Writing application                      : mkvmerge v7.8.0 ('River Man') 32bit built on Apr  3 2015 12:11:22
Writing library                          : libebml v1.3.1 + libmatroska v1.4.2
Video
ID                                       : 1
Format                                   : AVC
Format/Info                              : Advanced Video Codec
Format profile                           : [url=mailto:[email protected]][email protected][/url]
Format settings, CABAC                   : Yes
Format settings, ReFrames                : 4 frames
Codec ID                                 : V_MPEG4/ISO/AVC
Duration                                 : 3h 8mn
Bit rate                                 : 3 928 Kbps
Width                                    : 1 920 pixels
Height                                   : 1 080 pixels
Display aspect ratio                     : 16:9
Frame rate mode                          : Constant
Frame rate                               : 23.976 fps
Color space                              : YUV
Chroma subsampling                       : 4:2:0
Bit depth                                : 8 bits
Scan type                                : Progressive
Bits/(Pixel*Frame)                       : 0.079
Stream size                              : 5.08 GiB (89%)
Title                                    : Зеленая Миля - The Green Mile (1999)
Writing library                          : x264 core 146 r2538 121396c
Encoding settings                        : cabac=1 / ref=4 / deblock=1:-1:-1 / analyse=0x3:0x113 / me=umh / subme=10 / psy=1 / psy_rd=1.00:0.00 / mixed_ref=1 / me_range=32 / chroma_me=1 / trellis=2 / 8x8dct=1 / cqm=0 / deadzone=21,11 / fast_pskip=0 / chroma_qp_offset=-2 / threads=3 / lookahead_threads=1 / sliced_threads=0 / nr=0 / decimate=1 / interlaced=0 / bluray_compat=0 / constrained_intra=0 / bframes=8 / b_pyramid=2 / b_adapt=2 / b_bias=0 / direct=3 / weightb=1 / open_gop=0 / weightp=2 / keyint=240 / keyint_min=24 / scenecut=40 / intra_refresh=0 / rc_lookahead=60 / rc=2pass / mbtree=0 / bitrate=3928 / ratetol=1.0 / qcomp=0.60 / qpmin=0 / qpmax=69 / qpstep=4 / cplxblur=20.0 / qblur=0.5 / vbv_maxrate=14000 / vbv_bufsize=14000 / nal_hrd=none / filler=0 / ip_ratio=1.40 / pb_ratio=1.30 / aq=2:1.00
Language                                 : English
Default                                  : Yes
Forced                                   : No
Audio
ID                                       : 2
Format                                   : AC-3
Format/Info                              : Audio Coding 3
Mode extension                           : CM (complete main)
Format settings, Endianness              : Big
Codec ID                                 : A_AC3
Duration                                 : 3h 8mn
Bit rate mode                            : Constant
Bit rate                                 : 384 Kbps
Channel(s)                               : 6 channels
Channel positions                        : Front: L C R, Side: L R, LFE
Sampling rate                            : 48.0 KHz
Compression mode                         : Lossy
Stream size                              : 518 MiB (9%)
Language                                 : Russian
Default                                  : Yes
Forced                                   : No
Text #1
ID                                       : 3
Format                                   : PGS
Muxing mode                              : zlib
Codec ID                                 : S_HDMV/PGS
Codec ID/Info                            : Picture based subtitle format used on BDs/HD-DVDs
Language                                 : Russian
Default                                  : Yes
Forced                                   : No
Text #2
ID                                       : 4
Format                                   : PGS
Muxing mode                              : zlib
Codec ID                                 : S_HDMV/PGS
Codec ID/Info                            : Picture based subtitle format used on BDs/HD-DVDs
Language                                 : English
Default                                  : No
Forced                                   : No

Скриншоты:

Время раздачи: до 7 скачавших
Рейтинг@Mail.ru