Фантастическое путешествие / Fantastic Voyage (Ричард Флайшер)[1966,Фантастика, Фэнтези, Приключения, DVDRip H.264]

 

Создавать темы 26-Дек-2013 17:31

-Фантастическое путешествие / Fantastic Voyage (1966) DVDRip [H.264] -«The screen's most fantastic voyage»- Год выпуска: 1966
Жанр: Фантастика, Фэнтези, Приключения
Производство: США/20th Century Fox Film Corporation
Описание фильма:
Жизнь ученого в опасности. Спасти его может только хирургическое вмешательство. Но обычная операция на мозге вряд ли приведет к какому-то положительному результату.
И потому специальная подводная лодка с экипажем из врачей-ученых уменьшается до размеров молекулы и шприцем впрыскивается в вену.
Задача экспедиции — сделать все возможное для ликвидации тромба в мозгу пациента. Время фантастического рейса строго ограничено, счет идет на минуты.
Режиссер: Ричард Флайшер
Сценарий: Гарри Клайнер, Дэвид Дункан, Отто Клемент
Продюсер: Сауль Дэвид
Актеры: Стивен Бойд, Рэкел Уэлч, Эдмонд О’Брайен, Дональд Плезенс, Артур О’Коннелл, Уильям Редфилд, Артур Кеннеди, Жан Дель Вэл, Бэрри Коу, Кен Скотт
Продолжительность: 01:40:37
Качество видео: DVDRip
Перевод: Многоголосый закадровый
Субтитры: Отсутствуют

Дата мировой премьеры: 24 августа 1966
Дата выхода DVD релиза: 26 ноября 2009, «Двадцатый Век Фокс СНГ»
Видеокодек: MPEG-4 AVC/H.264
Битрейт видео: ~1758 Кбит/сек
Размер кадра: 720x304
Аудиокодек: AC3 2.0
Битрейт аудио: 192 Кбит/сек

Награды:

Оскар, 1967 год
Победитель (2):
Лучшая работа художника (цветные фильмы)
Лучшие визуальные эффекты
Номинации (3):
Лучшая работа оператора (цветные фильмы)
Лучший монтаж
Лучшие звуковые эффекты

MediaInfo:

General
Unique ID : 241527440836311954735141869861983850437 (0xB5B47E39D251AC6EB207F4E8B73D8FC5)
Complete name : F:\Downloads\Фантастическое путешествие.mkv
Format : Matroska
Format version : Version 4 / Version 2
File size : 1.37 GiB
Duration : 1h 40mn
Overall bit rate : 1 951 Kbps
Encoded date : UTC 2013-12-19 11:40:45
Writing application : mkvmerge v6.4.1 ('Omega Point') built on Sep 16 2013 22:05:10
Writing library : libebml v1.3.0 + libmatroska v1.4.1
Video
ID : 1
Format : AVC
Format/Info : Advanced Video Codec
Format profile : [url=mailto:[email protected]][email protected][/url]
Format settings, CABAC : Yes
Format settings, ReFrames : 8 frames
Codec ID : V_MPEG4/ISO/AVC
Duration : 1h 40mn
Bit rate : 1 758 Kbps
Width : 720 pixels
Height : 304 pixels
Display aspect ratio : 2.35:1
Frame rate mode : Constant
Frame rate : 23.976 fps
Color space : YUV
Chroma subsampling : 4:2:0
Bit depth : 8 bits
Scan type : Progressive
Bits/(Pixel*Frame) : 0.335
Stream size : 1.21 GiB (88%)
Title : Fantastic Voyage
Writing library : x264 core 130 r2273 b3065e6
Encoding settings : cabac=1 / ref=8 / deblock=1:-1:-1 / analyse=0x3:0x133 / me=umh / subme=9 / psy=1 / psy_rd=1.00:0.10 / mixed_ref=1 / me_range=32 / chroma_me=1 / trellis=2 / 8x8dct=1 / cqm=0 / deadzone=21,11 / fast_pskip=0 / chroma_qp_offset=-3 / threads=6 / lookahead_threads=1 / sliced_threads=0 / nr=0 / decimate=1 / interlaced=0 / bluray_compat=0 / constrained_intra=0 / bframes=3 / b_pyramid=2 / b_adapt=2 / b_bias=0 / direct=3 / weightb=1 / open_gop=0 / weightp=2 / keyint=250 / keyint_min=25 / scenecut=40 / intra_refresh=0 / rc_lookahead=60 / rc=2pass / mbtree=1 / bitrate=1758 / ratetol=1.0 / qcomp=0.60 / qpmin=10 / qpmax=51 / qpstep=4 / cplxblur=20.0 / qblur=0.5 / ip_ratio=1.40 / aq=1:1.00
Language : English
Default : Yes
Forced : No
Audio
ID : 2
Format : AC-3
Format/Info : Audio Coding 3
Mode extension : CM (complete main)
Format settings, Endianness : Big
Codec ID : A_AC3
Duration : 1h 40mn
Bit rate mode : Constant
Bit rate : 192 Kbps
Channel(s) : 2 channels
Channel positions : Front: L R
Sampling rate : 48.0 KHz
Bit depth : 16 bits
Compression mode : Lossy
Stream size : 138 MiB (10%)
Title : Профессиональный многоголосый
Language : Russian
Default : Yes
Forced : No

Скриншоты

Яндекс.Метрика
Рейтинг@Mail.ru