(Acoustic guitar) [CD] Kaori Muraji - Soleil ~ Portraits 2 - 2010, FLAC (image+.cue), lossless

 

Создавать темы 10-Фев-2016 20:48

-Kaori Muraji - Soleil ~ Portraits 2- Жанр: Acoustic guitar
Носитель: CD
Страна-производитель диска (релиза): Japan
Год издания: 2010
Издатель (лейбл): DECCA
Номер по каталогу: UCCD-1273
Страна исполнителя (группы): Japan
Аудиокодек: FLAC (*.flac)
Тип рипа: image+.cue
Битрейт аудио: lossless
Продолжительность: 59:21
Наличие сканов в содержимом раздачи: нет-Треклист:-01. Here Comes the Sun \ G.Harrison \ Arr. G.Sollscher - 2:10
02. Carmen Suite for Guitar \ G.Bizet \ Arr. H.Sato - 7:23
03. Have You Never Been Mellow \ J.Farrar \ Arr. H.Sato - 3:49
04. Fuoco (3rd Movement form Libra Sonatine) \ R.Dyens - 3:33
05. Samba de Orfeu \ L.Bonfa \ Arr. H.Sato - 1:28
06. Sound of Music \ R.Rodgers \ Arr. l.Almeida - 4:44
07. Alone Again (Naturally) \ R.O'Sallivan \ Arr. H.Sato - 4:43
La Catedral \ A.Barrios
08. No 1. Preludio (Saudade) - 2:20
09. No 2. Andante religioso - 1:50
10. No 3. Allegro Solemne - 3:47
11. Koln, January 24, 1975 Part 2 c \ K.Jarrett \ Tr. M.Barrueco - 6:22
12. Luzes do Rio \ L.Bonfa \ Copy & Arr. H.Sato - 2:48
13. El Dia Antes \ A.Pearsons \ Arr. H.Sato - 3:51
14. Prelude No 15 in D flat major: Sostenuto \ F.Chopin \ Arr. F.Tarrega - 5:05
15. The Way We Were \ A.Bergman,M.Bergman,M.Hamlisch \ Arr. H.Sato - 5:30

Лог создания рипа

Exact Audio Copy V1.0 beta 6 from 9. April 2015
EAC extraction logfile from 13. June 2015, 21:03
Kaori Muraji / ''Soleil''-Portraits 2
Used drive : SlimtypeDVD A DA8A5SH Adapter: 1 ID: 0
Read mode : Secure
Utilize accurate stream : Yes
Defeat audio cache : Yes
Make use of C2 pointers : No
Read offset correction : 6
Overread into Lead-In and Lead-Out : No
Fill up missing offset samples with silence : Yes
Delete leading and trailing silent blocks : No
Null samples used in CRC calculations : Yes
Used interface : Native Win32 interface for Win NT & 2000
Used output format : User Defined Encoder
Selected bitrate : 896 kBit/s
Quality : High
Add ID3 tag : No
Command line compressor : C:\Program Files (x86)\Exact Audio Copy\Flac\flac.exe
Additional command line options : -V -5 %source%
TOC of the extracted CD
Track | Start | Length | Start sector | End sector
---------------------------------------------------------
1 | 0:00.00 | 2:10.11 | 0 | 9760
2 | 2:10.11 | 7:22.41 | 9761 | 42951
3 | 9:32.52 | 3:49.10 | 42952 | 60136
4 | 13:21.62 | 3:32.61 | 60137 | 76097
5 | 16:54.48 | 1:27.63 | 76098 | 82685
6 | 18:22.36 | 4:43.66 | 82686 | 103976
7 | 23:06.27 | 4:42.56 | 103977 | 125182
8 | 27:49.08 | 2:19.44 | 125183 | 135651
9 | 30:08.52 | 1:49.52 | 135652 | 143878
10 | 31:58.29 | 3:46.50 | 143879 | 160878
11 | 35:45.04 | 6:22.08 | 160879 | 189536
12 | 42:07.12 | 2:47.45 | 189537 | 202106
13 | 44:54.57 | 3:51.23 | 202107 | 219454
14 | 48:46.05 | 5:04.73 | 219455 | 242327
15 | 53:51.03 | 5:29.70 | 242328 | 267072
Range status and errors
Selected range
Filename D:\#Музыка\Kaori Muraji-''Soleil''-Portraits 2\Kaori Muraji - ''Soleil''-Portraits 2.wav
Peak level 100.0 %
Extraction speed 4.4 X
Range quality 100.0 %
Test CRC 8AF4D137
Copy CRC 8AF4D137
Copy OK
No errors occurred
End of status report
---- CUETools DB Plugin V2.1.6
[CTDB TOCID: Fk0QZCVIfm_.U9m0f6.KfNWdVog-] found
Submit result: already submitted
Track | CTDB Status
1 | (14/14) Accurately ripped
2 | (14/14) Accurately ripped
3 | (14/14) Accurately ripped
4 | (14/14) Accurately ripped
5 | (14/14) Accurately ripped
6 | (14/14) Accurately ripped
7 | (14/14) Accurately ripped
8 | (14/14) Accurately ripped
9 | (14/14) Accurately ripped
10 | (14/14) Accurately ripped
11 | (14/14) Accurately ripped
12 | (14/14) Accurately ripped
13 | (14/14) Accurately ripped
14 | (14/14) Accurately ripped
15 | (13/14) Accurately ripped
==== Log checksum C337184354132E106FA0B3D71FD2B54A5D63650A8D3C6F960FFD04A50D33E281 ====

Лог проверки качества

-----------------------
DON'T MODIFY THIS FILE
-----------------------
PERFORMER: auCDtect Task Manager, ver. 1.6.0 RC1 build 1.6.0.1
Copyright (c) 2008-2010 y-soft. All rights reserved
http://y-soft.org
ANALYZER: auCDtect: CD records authenticity detector, version 0.8.2
Copyright (c) 2004 Oleg Berngardt. All rights reserved.
Copyright (c) 2004 Alexander Djourik. All rights reserved.
FILE: Kaori Muraji - ''Soleil''-Portraits 2.flac
Size: 222508698 Hash: 9D3D57AD824F73F046856F6E203DBB68 Accuracy: -m0
Conclusion: CDDA 100%
Signature: 1AE03D37439AF4F107531B018A7D102E4797CDB6

Об исполнителе (группе)


МУРАДЗИ Каори (лат.: Kaori Muraji) – японская классическая гитаристка. Родилась 14 апреля 1978 года в Токио. Первые уроки игры на гитаре получила в трехлетнем возрасте от отца Ноборо Мурадзи. "Гитара всегда была частью моей жизни, – говорит о себе Каори Мурадзи. – Я даже не могу вспомнить, когда начала на ней играть. Гитара – моя вторая натура, играть на ней ежедневно давно стало моей естественной потребностью и я даже представить не могу свою жизнь без гитары".
В 10 лет она начала заниматься у талантливого японского гитариста Фукуда Шиничи. Первые победы Каори завоевала на юношеском (1989) и дважды на студенческом (1989 и 1991 гг.) гитарных конкурсах. В 1992 году она стала самой юной участницей-победителем Международного гитарного конкурса Лео Брауэра и Международного гитарного конкурса в Токио. Свой дебютный сольный концерт 14-летняя Каори Мурадзи дала в марте 1993 года в концертном зале Цуда в Токио. В октябре того же года был записан ее первый CD-альбом "Espressivo" (Экспрессивный или Выразительный), а в январе 1995 года – диск "Gleen Sleeves" (Зеленые рукава). В июле 1996 года Каори Мурадзи выпустила свой третий диск – "Sinfonia" (Симфония). В марте 1995 года ей была присуждена почетная национальная музыкальная премия Идемицу. В мае-июне 1996 года Каори Мурадзи была приглашена в Италию, где с большим успехом (это был ее европейский дебют) трижды выступила с исполнением "Аранхуэсского концерта" Хоакино Родриго с Национальным симфоническим оркестром РАИ (Orchestra Sinfonica Nazionale della RAI) под управлением Гвидо Гвида, которое широко транслировалось по телевидению многих стран Европы. В 1997 году вышел четвертый альбом Каори Мурадзи "Pastorale" (Пастораль) с произведениями Родриго, а в следующем году пятый – "Cavatina" (Каватина), с записью сочинений Торка, Барриоса, Сагрераса, Брауэра и Майерса, – оба ставшие бестселлерами. В течение 2000-2007 годов ею было записано еще 8 дисков и DVD-альбом "Contrastes" (Контрасты). В 1997-1999 годах Каори Мурадзи занималась у Альберто Понсе в Нормальной музыкальной школе (Ecole Normale de Musique "Alfred Cortot") – высшей музыкальной школе в Париже. После возвращения в июне 1999 года на родину в Японию она в последущие шесть месяцев выступила с тридцатью концертами, а также по телевидению и радио. Каори Мурадзи проводит не только множество сольных концертов, но и постоянно играет в сопровождении ведущих японских и ряда зарубежных оркестров.
-Время раздачи: 24/7 (круглосуточно)-
Яндекс.Метрика
Рейтинг@Mail.ru