Любить нельзя ненавидеть / Серии: 1-8 из 8 (Флюза Фархшатова) [2013, Мелодрама, криминал, SATRip-AVC]

 

Создавать темы 10-Фев-2016 13:05

Любить нельзя ненавидеть -Год выпуска: 2013
Производитель: Россия, Студия "Жар-птица"
Жанр: Мелодрама, криминал
Продолжительность: ~ 00:45:00 / Серия
Субтитры: Нет-Режиссер: Флюза Фархшатова
В ролях: Мария Машкова, Юрий Цурило, Сергей Перегудов, Сергей Марин, Евгения Дмитриева, Витас Эйзенах, Джан Бадмаев, Алёна Чехова, Елена Медведева-Описание: Отставной военный Иван Горностаев и его супруга Ольга построили своё счастье собственными руками, они владеют небольшой гостиницей в лесных угодьях неподалёку от областного центра, не испытывают недостатка в клиентах из числа рыбаков и охотников и по праву гордятся достигнутым благополучием. Их сын Владимир - известный в городе нейрохирург - тоже вполне успешен. Не меньше оснований для счастья имеет молодая чета Сабуровых - начинающий прокурор Алина и адвокат Дмитрий. Все они энергичные, не боящиеся трудностей - настоящий современный средний класс...-Все раздачи сериала
Семпл-Качество: SATRip-AVC
Формат: MKV
Видео кодек: AVC
Аудио кодек: AC3
Видео: MPEG-4 AVC, 720x400 (16:9), 25.000 fps, 1550 Kbps (0.215 bit/pixel)
Аудио: AC3, 48.0 KHz, 2 ch, 192 Kbps, CBR

MI

General
Unique ID : 180304468124899438227032539388587619094 (0x87A5609F0BE22BA7AA879398E0653316)
Complete name : E:\Фильмы Мои рипы\Liubit.nelzia.nenavidet_SATRip-AVC_SarDmitriy\01.Liubit.nelzia.nenavidet_SATRip-AVC_SarDmitriy.mkv
Format : Matroska
Format version : Version 4 / Version 2
File size : 571 MiB
Duration : 45mn 50s
Overall bit rate : 1 742 Kbps
Encoded date : UTC 2016-02-08 15:56:12
Writing application : mkvmerge v6.4.1 ('Omega Point') built on Sep 16 2013 22:05:10
Writing library : libebml v1.3.0 + libmatroska v1.4.1
Video
ID : 1
Format : AVC
Format/Info : Advanced Video Codec
Format profile : [email protected]
Format settings, CABAC : No
Format settings, ReFrames : 1 frame
Codec ID : V_MPEG4/ISO/AVC
Duration : 45mn 50s
Bit rate : 1 550 Kbps
Width : 720 pixels
Height : 400 pixels
Display aspect ratio : 16:9
Frame rate mode : Constant
Frame rate : 25.000 fps
Color space : YUV
Chroma subsampling : 4:2:0
Bit depth : 8 bits
Scan type : Progressive
Bits/(Pixel*Frame) : 0.215
Stream size : 497 MiB (87%)
Writing library : x264 core 116 r2019 9cc407d
Encoding settings : cabac=0 / ref=1 / deblock=1:0:0 / analyse=0x3:0x113 / me=hex / subme=7 / psy=1 / psy_rd=1.00:0.00 / mixed_ref=0 / me_range=16 / chroma_me=1 / trellis=1 / 8x8dct=1 / cqm=0 / deadzone=21,11 / fast_pskip=1 / chroma_qp_offset=-2 / threads=3 / sliced_threads=0 / nr=0 / decimate=1 / interlaced=0 / bluray_compat=0 / constrained_intra=0 / bframes=0 / weightp=2 / keyint=250 / keyint_min=25 / scenecut=40 / intra_refresh=0 / rc_lookahead=40 / rc=2pass / mbtree=1 / bitrate=1550 / ratetol=1.0 / qcomp=0.60 / qpmin=0 / qpmax=69 / qpstep=4 / cplxblur=20.0 / qblur=0.5 / ip_ratio=1.40 / aq=1:1.00
Default : Yes
Forced : No
Audio
ID : 2
Format : AC-3
Format/Info : Audio Coding 3
Mode extension : CM (complete main)
Format settings, Endianness : Big
Codec ID : A_AC3
Duration : 45mn 50s
Bit rate mode : Constant
Bit rate : 192 Kbps
Channel(s) : 2 channels
Channel positions : Front: L R
Sampling rate : 48.0 KHz
Bit depth : 16 bits
Compression mode : Lossy
Stream size : 63.0 MiB (11%)
Default : Yes
Forced : No

Скриншоты

Релиз: SarDmitriy
Реклама: Отсутствует
Яндекс.Метрика
Рейтинг@Mail.ru