BBC: Операция Стоунхендж. Тайна, скрытая под камнями / Operation Stonehenge: What Lies Beneath [серии 1-2 из 2] (Джереми Тернер / Jeremy Turner) [2014 г., Документально-постановочный, история, HDTVRip 720p]

 

Создавать темы 07-Фев-2016 19:01

-BBC: Операция Стоунхендж. Тайна, скрытая под камнями / Operation Stonehenge: What Lies Beneath [серии 1-2 из 2]
(Джереми Тернер / Jeremy Turner) [2014 г., Документально-постановочный, история, HDTVRip 720p]
- Год выпуска: 2014
Страна: Великобритания, BBC
Жанр: Документально-постановочный, история
Продолжительность: 2 x ~ 00:59:00
Перевод: Профессиональный (двухголосый)
Режиссер: Джереми Тернер / Jeremy Turner-Описание:-Стоунхендж является иконой доисторической британской культуры, загадка, что интересовала археологов и туристов на протяжении веков. Почему он появился здесь? Какое его значение? И какие силы вдохновили его создателей? Группа международных археологов нашли новый подход, который, возможно, является ключом к тайнам Стоунхенджа...-Доп. информация: компания "Видеофильм ТВ"-Качество: HDTVRip 720p
Формат: MKV
Видео кодек: H.264
Аудио кодек: AC3
Видео: 1280x720 25.00fps 4000 Kbps
Аудио: AC3 2ch, 48kHz, 192 kbps-

MediaIfo:

Format : Matroska
Format version : Version 4 / Version 2
File size : 1.64 GiB
Duration : 58mn 54s
Overall bit rate mode : Constant
Overall bit rate : 3 981 Kbps
Encoded date : UTC 2016-02-07 08:11:31
Writing application : mkvmerge v7.3.0 ('Nouages') 64bit built on Oct 22 2014 18:53:34
Writing library : libebml v1.3.0 + libmatroska v1.4.1
DURATION : 00:58:54.679000000
NUMBER_OF_FRAMES : 88367
NUMBER_OF_BYTES : 1673163273
_STATISTICS_WRITING_APP : mkvmerge v7.3.0 ('Nouages') 64bit built on Oct 22 2014 18:53:34
_STATISTICS_WRITING_DATE_UTC : 2016-02-07 08:11:31
_STATISTICS_TAGS : BPS DURATION NUMBER_OF_FRAMES NUMBER_OF_BYTES
Video
ID : 1
Format : AVC
Format/Info : Advanced Video Codec
Format profile : [email protected]
Format settings, CABAC : Yes
Format settings, ReFrames : 3 frames
Codec ID : V_MPEG4/ISO/AVC
Duration : 58mn 54s
Bit rate mode : Constant
Bit rate : 3 709 Kbps
Nominal bit rate : 4 000 Kbps / 4 000 Kbps
Width : 1 280 pixels
Height : 720 pixels
Display aspect ratio : 16:9
Frame rate mode : Constant
Frame rate : 25.000 fps
Standard : NTSC
Color space : YUV
Chroma subsampling : 4:2:0
Bit depth : 8 bits
Scan type : Progressive
Bits/(Pixel*Frame) : 0.161
Stream size : 1.53 GiB (93%)
Writing library : x264 core 114
Encoding settings : cabac=1 / ref=3 / deblock=1:0:0 / analyse=0x3:0x113 / me=hex / subme=7 / psy=1 / psy_rd=1.00:0.00 / mixed_ref=1 / me_range=16 / chroma_me=1 / trellis=1 / 8x8dct=1 / cqm=2 / deadzone=21,11 / fast_pskip=1 / chroma_qp_offset=-2 / threads=6 / sliced_threads=0 / slices=1 / nr=0 / decimate=1 / interlaced=0 / constrained_intra=0 / bframes=3 / b_pyramid=0 / b_adapt=1 / b_bias=0 / direct=1 / weightb=1 / open_gop=0 / weightp=2 / keyint=250 / keyint_min=25 / scenecut=40 / intra_refresh=0 / rc_lookahead=40 / rc=cbr / mbtree=1 / bitrate=4000 / ratetol=1.0 / qcomp=0.60 / qpmin=3 / qpmax=69 / qpstep=4 / vbv_maxrate=4000 / vbv_bufsize=3997 / nal_hrd=cbr / ip_ratio=1.40 / aq=1:1.00
Default : Yes
Forced : No
Color primaries : BT.709
Transfer characteristics : BT.709
Matrix coefficients : BT.709
Color range : Limited
Audio
ID : 2
Format : AC-3
Format/Info : Audio Coding 3
Mode extension : CM (complete main)
Format settings, Endianness : Big
Codec ID : A_AC3
Duration : 58mn 54s
Bit rate mode : Constant
Bit rate : 192 Kbps
Channel(s) : 2 channels
Channel positions : Front: L R
Sampling rate : 48.0 KHz
Bit depth : 16 bits
Compression mode : Lossy
Stream size : 80.9 MiB (5%)
Default : Yes
Forced : No
-Скриншоты--Время раздачи: 24/7 (круглосуточно)-
Яндекс.Метрика
Рейтинг@Mail.ru