[ Сегодня на трекере фрилич! Идет свободное скачивание без начисления Download ]

Риддик / Riddick (Дэвид Туи / David Twohy) [2013 г., Фантастика, Боевик, Триллер, BDRip-AVC] Dub [iTunes Russia] + Original (Eng) + Sub (Rus)[internal release]

 

Создавать темы 26-Дек-2013 15:42

-Риддик / Riddick-«Лучший способ отомстить - остаться в живых»-- -Производство: США / Universal Pictures, Radar Pictures, One Race Productions
Год выпуска: 2013 г.
Жанр: Фантастика, Боевик, Триллер
Продолжительность: 01:58:40-Мировая премьера: 4 сентября 2013
Российская премьера: 12 сентября 2013, «Централ Партнершип»-Перевод: Профессиональный (полное дублирование) [iTunes Russia]
Оригинальный аудиопоток: английский-Режиссер: Дэвид Туи / David Twohy-В ролях: Вин Дизель, Карл Урбан, Хорди Молья, Мэтью Нэйбл, Кэти Сакхофф, Дэйв Батиста, Букем Вудбайн, Рауль Трухильо, Конрад Пла, Дэнни Бланко-Описание: Преданный своими и брошенный умирать на пустынной планете, Риддик сражается с хищниками за жизнь и становится сильнее и опаснее себя прежнего. Открывшие на него охоту галактические наемники оказываются пешками в грандиозном плане отмщения. С врагами, возникающими на его пути тогда, когда это нужно самому Риддику, он начинает поход во имя мести, чтобы в конечном счете вернуться на родную Фурию и спасти ее от уничтожения.- -Качество видео: BDRip-AVC
Контейнер: MKV
Видео кодек: H.264
Аудио кодек: AC3
Видео: AVC at 1740 Кбит/сек, 1040x432 at 23,976 fps
Аудио 1: 48 kHz, AC3 Dolby Digital, 3/2 (L,C,R,l,r) + LFE ch, ~384 kbps [Dub]
Аудио 2: 48 kHz, AC3 Dolby Digital, 3/2 (L,C,R,l,r) + LFE ch, ~448 kbps [Eng]
Cубтитры: русские (отключаемые).

Media Info

Общее
Уникальный идентификатор : 174334832113204674025210171743904080349 (0x8327AAD78ED9E1E4945C0E10973E21DD)
Полное имя : H:\P9\Riddick.D.BDRip-AVC.mkv
Формат : Matroska
Версия формата : Version 2
Размер файла : 2,13 Гбайт
Продолжительность : 1 ч. 58 м.
Общий поток : 2573 Кбит/сек
Название фильма : Riddick.D.BDRip-AVC http://pirat.ca
Дата кодирования : UTC 2013-12-23 06:34:49
Программа кодирования : mkvmerge v5.8.0 ('No Sleep / Pillow') built on Sep 2 2012 15:37:04
Библиотека кодирования : libebml v1.2.3 + libmatroska v1.3.0
Видео
Идентификатор : 1
Формат : AVC
Формат/Информация : Advanced Video Codec
Профиль формата : [email protected]
Параметр CABAC формата : Да
Параметр ReFrames формата : 8 кадров
Идентификатор кодека : V_MPEG4/ISO/AVC
Продолжительность : 1 ч. 58 м.
Битрейт : 1740 Кбит/сек
Ширина : 1040 пикселей
Высота : 432 пикселя
Соотношение сторон : 2,40:1
Режим частоты кадров : Постоянный
Частота кадров : 23,976 кадра/сек
Цветовое пространство : YUV
Субдискретизация насыщенности : 4:2:0
Битовая глубина : 8 бит
Тип развёртки : Прогрессивная
Бит/(Пиксели*Кадры) : 0.162
Размер потока : 1,40 Гбайт (66%)
Библиотека кодирования : x264 core 125 r2208 d9d2288
Настройки программы : cabac=1 / ref=8 / deblock=1:-1:-1 / analyse=0x3:0x133 / me=umh / subme=11 / psy=1 / psy_rd=1.00:0.15 / mixed_ref=0 / me_range=32 / chroma_me=1 / trellis=2 / 8x8dct=1 / cqm=0 / deadzone=21,11 / fast_pskip=0 / chroma_qp_offset=-3 / threads=3 / lookahead_threads=1 / sliced_threads=0 / nr=0 / decimate=1 / interlaced=0 / bluray_compat=0 / constrained_intra=0 / bframes=8 / b_pyramid=2 / b_adapt=2 / b_bias=0 / direct=3 / weightb=1 / open_gop=0 / weightp=2 / keyint=250 / keyint_min=23 / scenecut=40 / intra_refresh=0 / rc_lookahead=50 / rc=2pass / mbtree=1 / bitrate=1740 / ratetol=1.0 / qcomp=0.60 / qpmin=0 / qpmax=69 / qpstep=4 / cplxblur=20.0 / qblur=0.5 / ip_ratio=1.40 / aq=1:1.00
Язык : English
Default : Да
Forced : Нет
Аудио #1
Идентификатор : 2
Формат : AC-3
Формат/Информация : Audio Coding 3
Расширение режима : CM (complete main)
Параметр Endianness формата : Big
Идентификатор кодека : A_AC3
Продолжительность : 1 ч. 58 м.
Вид битрейта : Постоянный
Битрейт : 384 Кбит/сек
Каналы : 6 каналов
Расположение каналов : Front: L C R, Side: L R, LFE
Частота : 48,0 КГц
Битовая глубина : 16 бит
Метод сжатия : С потерями
Размер потока : 326 Мбайт (15%)
Язык : Russian
Default : Да
Forced : Нет
Аудио #2
Идентификатор : 3
Формат : AC-3
Формат/Информация : Audio Coding 3
Расширение режима : CM (complete main)
Параметр Endianness формата : Big
Идентификатор кодека : A_AC3
Продолжительность : 1 ч. 58 м.
Вид битрейта : Постоянный
Битрейт : 448 Кбит/сек
Каналы : 6 каналов
Расположение каналов : Front: L C R, Side: L R, LFE
Частота : 48,0 КГц
Битовая глубина : 16 бит
Метод сжатия : С потерями
Размер потока : 380 Мбайт (17%)
Язык : English
Default : Нет
Forced : Нет
Текст
Идентификатор : 4
Формат : UTF-8
Идентификатор кодека : S_TEXT/UTF8
Идентификатор кодека/Информация : UTF-8 Plain Text
Язык : Russian
Default : Нет
Forced : Нет

Скриншоты

Трейлер

Создавать темы 31-Янв-2016 13:58 (спустя 2 года 1 месяц)

Топик был перенесен из форума Зарубежные Новинки (HD*Rip/LQ, DVDRip) в форум Зарубежные Фильмы (HD)
T_O_M
Яндекс.Метрика
Рейтинг@Mail.ru