Бессмертные: Война миров / Immortel (ad vitam) (Серж Леман / Serge Lehman, ...) [2004 г., фантастика, фэнтези, мелодрама, криминал, ..., BDRip] Dub

 

Создавать темы 26-Дек-2013 07:19

-Бессмертные: Война миров
Immortel (ad vitam)
-- Производство: Франция, Италия, Великобритания
Год выпуска: 2004 г.
Жанр: фантастика, фэнтези, мелодрама, криминал, ...
Продолжительность: 01:43:08-Мировая премьера: 13 марта 2004, ...
Российская премьера: 13 мая 2004, «Централ Партнершип»
Дата выхода DVD: 8 июля 2004, «CP-Digital», ...-Перевод: Профессиональный (полное дублирование) [Лицензия]
Режиссер: Серж Леман / Serge Lehman, Энки Билал / Enki Bilal-В ролях: Линда Харди, Томас Кречманн, Шарлотта Рэмплинг, Янн Коллетт, Фредерик Пьеро, Томас М. Поллард, Джо Шеридан, Коринн Жабер, Оливье Ашар, Джерри Ди Джакомо-Описание: 2095 год. Над трехуровневым Нью-Йорком парит пирамида бессмертных богов, зловещая корпорация «Евгеника» похищает людей для своих тайных экспериментов, а в мрачных закоулках рыщет серийный убийца, про которого известно лишь то, что он — нечеловек.
Здесь Джилл, загадочную женщину с синими волосами и синими слезами, ждет встреча с древним богом Гором, приговоренным другими богами к смерти. У него есть всего семь дней, чтобы найти человеческую оболочку и соблазнить Джилл, обладающую таинственным даром и способную спасти обреченное божество.
Единственный выбор Гора — тело замороженного 30 лет назад бунтаря Никопола, которому известны страшные тайны Нью-Йорка будущего…-Качество видео: BDRip
Контейнер: AVI
Видео кодек: XviD
Аудио кодек: AC3
Видео: MPEG-4 Visual at 1930 Кбит/сек: 720 x 400 (1.800) at 24.000 fps: 0.279 Бит/Пиксели
Аудио Rus: AC-3 at 448 Кбит/сек: 6 каналов, 48,0 КГц
Аудио Eng: AC-3 at 448 Кбит/сек: 6 каналов, 48,0 КГц
Cубтитры: отсутствуют

Media Info

Общее
Полное имя                               : E:\uTorDown\uTorrent\Bessmertnye.voina.mirov.2004.BDRip_[pirat.ca].avi
Формат                                   : AVI
Формат/Информация                        : Audio Video Interleave
Профиль формата                          : OpenDML
Размер файла                             : 2,05 Гбайт
Продолжительность                        : 1 ч. 43 м.
Общий поток                              : 2844 Кбит/сек
Программа кодирования                    : VirtualDubModRus 1.5.10.2 (build 2542/release)
Библиотека кодирования                   : VirtualDubMod build 2542/release
Видео
Идентификатор                            : 0
Формат                                   : MPEG-4 Visual
Профиль формата                          : Advanced [email protected]
Параметр BVOP формата                    : 2
Параметр QPel формата                    : Нет
Параметр GMC формата                     : Без точки перехода
Параметр матрицы формата                 : Default (MPEG)
Режим смешивания                         : Сжатый битовый поток
Идентификатор кодека                     : XVID
Идентификатор кодека/Подсказка           : XviD
Продолжительность                        : 1 ч. 43 м.
Битрейт                                  : 1930 Кбит/сек
Ширина                                   : 720 пикселей
Высота                                   : 400 пикселей
Соотношение сторон                       : 16:9
Частота кадров                           : 24,000 кадра/сек
Цветовое пространство                    : YUV
Субдискретизация насыщенности            : 4:2:0
Битовая глубина                          : 8 бит
Тип развёртки                            : Прогрессивная
Метод сжатия                             : С потерями
Бит/(Пиксели*Кадры)                      : 0.279
Размер потока                            : 1,39 Гбайт (68%)
Библиотека кодирования                   : XviD 64
Аудио #1
Идентификатор                            : 1
Формат                                   : AC-3
Формат/Информация                        : Audio Coding 3
Расширение режима                        : CM (complete main)
Параметр Endianness формата              : Big
Идентификатор кодека                     : 2000
Продолжительность                        : 1 ч. 43 м.
Вид битрейта                             : Постоянный
Битрейт                                  : 448 Кбит/сек
Каналы                                   : 6 каналов
Расположение каналов                     : Front: L C R, Side: L R, LFE
Частота                                  : 48,0 КГц
Битовая глубина                          : 16 бит
Метод сжатия                             : С потерями
Размер потока                            : 330 Мбайт (16%)
Выравнивание                             : Разделение по промежуткам
Продолжительность промежутка             : 42  мс. (1,00 видеокадр)
Время предзагрузки промежутка            : 500  мс.
Аудио #2
Идентификатор                            : 2
Формат                                   : AC-3
Формат/Информация                        : Audio Coding 3
Расширение режима                        : CM (complete main)
Параметр Endianness формата              : Big
Идентификатор кодека                     : 2000
Продолжительность                        : 1 ч. 43 м.
Вид битрейта                             : Постоянный
Битрейт                                  : 448 Кбит/сек
Каналы                                   : 6 каналов
Расположение каналов                     : Front: L C R, Side: L R, LFE
Частота                                  : 48,0 КГц
Битовая глубина                          : 16 бит
Метод сжатия                             : С потерями
Размер потока                            : 330 Мбайт (16%)
Выравнивание                             : Разделение по промежуткам
Продолжительность промежутка             : 42  мс. (1,00 видеокадр)
Время предзагрузки промежутка            : 500  мс.

Скриншот c названием фильма

Скриншоты

-
Яндекс.Метрика
Рейтинг@Mail.ru