Шпионский мост / Bridge of Spies (2015) BDRip-AVC | iPad | iTunes

 

Создавать темы 06-Фев-2016 16:14

• Шпионский мост / Bridge of Spies • Страна: США, Германия, Индия
Производство: Amblin Entertainment, DreamWorks SKG, Fox 2000 Pictures, Marc Platt Productions, Participant Media, Reliance Entertainment, Studio Babelsberg, TSG Entertainment
Год выпуска: 2015
Жанр: триллер, драма, биография
Режиссёр: Стивен Спилберг
В ролях: Том Хэнкс, Марк Райлэнс, Эми Райан, Алан Алда, Остин Стоуэлл, Скотт Шеперд, Джесси Племонс, Доменик Ломбардоззи, Себастьян Кох, Ив Хьюсон
Перевод: Профессиональный (полное дублирование) [iTunes]
Оригинальная аудиодорожка: Есть
Cубтитры: Русские форсированные, Украинские форсированные, Русские, Украинские, Английские, Английские SDH
Описание: Действие фильма происходит на фоне серии реальных исторических событий и рассказывает о бруклинском адвокате Джеймсе Доноване, который оказывается в эпицентре холодной войны, когда ЦРУ отправляет его на практически невозможное задание — договориться об освобождении захваченного в СССР американского пилота самолета-разведчика U2.

Качество: BDRip (исходник BDRemux)
Тип: SD (576p)
Продолжительность: 02:21:21
Формат: M4V
Видео кодек: H.264
Аудио кодек: AAC-LC
Свойства видео: 1024x432 (2.40:1), 23.976 (24000/1001) fps, 2 200 Kbps (0.207 bit/pixel)
Свойства аудио 1: 48.0 KHz, 2 ch, 156 kbps [Русский/Дублированный (iTunes)]
Свойства аудио 2: 48.0 KHz, 2 ch, 157 kbps [Английский/Оригинальная дорожка]
Субтитры 1: Русские форсированные
Субтитры 2: Украинские форсированные
Субтитры 3: Русские полные
Субтитры 4: Украинские полные
Субтитры 5: Английские полные
Субтитры 6: Английские SDH

iTunes Meta Tags/MediaInfo/Log

iTunes Meta Tags
Sort Name: Bridge of Spies
XID: Apple:vendor_id:2015-840884
contentID: 1046176722
Copyright: © 2015 DreamWorks
Screenwriters: Мэтт Чарман, Итан Коэн, Джоэл Коэн
Producers: Кристи Макоско Кригер, Марк Э. Платт, Стивен Спилберг
Director: Стивен Спилберг
Cast: Том Хэнкс, Марк Райлэнс, Эми Райан, Алан Алда, Остин Стоуэлл, Скотт Шеперд, Джесси Племонс, Доменик Ломбардоззи, Себастьян Кох, Ив Хьюсон
Studio: DreamWorks
Rating Annotation: Rated PG-13 for some violence and brief strong language.
Rating: 4
Long Deion: Действие фильма происходит на фоне серии реальных исторических событий и рассказывает о бруклинском адвокате Джеймсе Доноване, который оказывается в эпицентре холодной войны, когда ЦРУ отправляет его на практически невозможное задание - договориться об освобождении захваченного в СССР американского пилота самолета-разведчика U2.
Deion: Действие фильма происходит на фоне серии реальных исторических событий и рассказывает о бруклинском адвокате Джеймсе Доноване, который оказывается в эпицентре холодной войны, когда ЦРУ отправляет его на практически невозможное задание - договориться об освобождении захваченного в СССР американского пилота самолета-разведчика U2.
Release Date: 2015-10-04T08:00:00Z
Genre: Drama
Artist: Steven Spielberg
Name: Bridge of Spies-General
Complete name : /Users/imac/HandBrake/Bridge.of.Spies.(576p).(pk).m4v
Format : MPEG-4
Codec ID : M4V (M4V /M4A /mp42/isom)
File size : 2.49 GiB
Duration : 2h 21mn
Overall bit rate mode : Variable
Overall bit rate : 2 520 Kbps
Movie name : Bridge of Spies
Performer : Steven Spielberg
Director : Стивен Спилберг
Actor : Том Хэнкс / Марк Райлэнс / Эми Райан / Алан Алда / Остин Стоуэлл / Скотт Шеперд / Джесси Племонс / Доменик Ломбардоззи / Себастьян Кох / Ив Хьюсон
Screenplay by : Мэтт Чарман / Итан Коэн / Джоэл Коэн
Producer : Кристи Макоско Кригер / Марк Э. Платт / Стивен Спилберг
Production studio : DreamWorks
Genre : Drama
ContentType : Short Film
Deion : Действие фильма происходит на фоне серии реальных исторических событий и рассказывает о бруклинском адвокате Джеймсе Доноване, который оказывается в эпицентре холодной войны, когда ЦРУ отправляет его на практически невозможное задание - договориться об освобождении захваченного в СССР американского пилота самолета-разведчика U2.
Recorded date : UTC 2015-10-04 08:00:00
Encoded date : UTC 2016-02-05 09:22:54
Tagged date : UTC 2016-02-05 09:24:05
Copyright : © 2015 DreamWorks
Cover : Yes
Rating : None
Title/Sort : Bridge of Spies
LongDeion : Действие фильма происходит на фоне серии реальных исторических событий и рассказывает о бруклинском адвокате Джеймсе Доноване, который оказывается в эпицентре холодной войны, когда ЦРУ отправляет его на практически невозможное задание - договориться об освобождении захваченного в СССР американского пилота самолета-разведчика U2.
AppleStoreCatalogID : 1046176722
Vendor : Apple:vendor_id:2015-840884
ContentRating : mpaa|PG-13|300|Rated PG-13 for some violence and brief strong language.
Video #1
ID : 1
Format : AVC
Format/Info : Advanced Video Codec
Format profile : [email protected]
Format settings, CABAC : Yes
Format settings, ReFrames : 9 frames
Codec ID : avc1
Codec ID/Info : Advanced Video Coding
Duration : 2h 21mn
Source duration : 2h 21mn
Bit rate : 2 200 Kbps
Width : 1 024 pixels
Height : 432 pixels
Display aspect ratio : 2.40:1
Frame rate mode : Variable
Frame rate : 23.976 (24000/1001) fps
Minimum frame rate : 23.974 fps
Maximum frame rate : 23.981 fps
Color space : YUV
Chroma subsampling : 4:2:0
Bit depth : 8 bits
Scan type : Progressive
Bits/(Pixel*Frame) : 0.207
Stream size : 2.17 GiB (87%)
Source stream size : 2.17 GiB (87%)
Title : Main Program
Writing library : x264 core 142 r2479 dd79a61
Encoding settings : cabac=1 / ref=9 / deblock=1:0:0 / analyse=0x3:0x113 / me=umh / subme=9 / psy=1 / psy_rd=1.00:0.00 / mixed_ref=1 / me_range=32 / chroma_me=1 / trellis=1 / 8x8dct=1 / cqm=0 / deadzone=21,11 / fast_pskip=1 / chroma_qp_offset=-2 / threads=36 / lookahead_threads=3 / sliced_threads=0 / nr=0 / decimate=1 / interlaced=0 / bluray_compat=0 / constrained_intra=0 / bframes=6 / b_pyramid=2 / b_adapt=2 / b_bias=0 / direct=1 / weightb=1 / open_gop=0 / weightp=2 / keyint=240 / keyint_min=24 / scenecut=40 / intra_refresh=0 / rc_lookahead=40 / rc=2pass / mbtree=1 / bitrate=2200 / ratetol=1.0 / qcomp=0.60 / qpmin=0 / qpmax=69 / qpstep=4 / cplxblur=20.0 / qblur=0.5 / ip_ratio=1.40 / aq=1:1.00
Language : Russian
Encoded date : UTC 2016-02-05 09:22:54
Tagged date : UTC 2016-02-05 09:22:59
Color range : Limited
Color primaries : BT.709
Transfer characteristics : BT.709
Matrix coefficients : BT.709
Menus : 10,11
Video #2
ID : 11
Format : JPEG
Codec ID : jpeg
Duration : 2h 21mn
Bit rate mode : Variable
Bit rate : 464 bps
Width : 640 pixels
Height : 270 pixels
Display aspect ratio : 2.40:1
Frame rate mode : Variable
Frame rate : 0.002 fps
Minimum frame rate : 0.001 fps
Maximum frame rate : 0.005 fps
Color space : YUV
Chroma subsampling : 4:2:0
Bit depth : 8 bits
Compression mode : Lossy
Bits/(Pixel*Frame) : 1.343
Stream size : 482 KiB (0%)
Title : Chapter Images
Language : Russian
Default : No
Encoded date : UTC 2016-02-05 09:23:25
Tagged date : UTC 2016-02-05 09:23:25
Menu For : 1
Audio #1
ID : 2
Format : AAC
Format/Info : Advanced Audio Codec
Format profile : LC
Codec ID : 40
Duration : 2h 21mn
Bit rate mode : Variable
Bit rate : 156 Kbps
Maximum bit rate : 230 Kbps
Channel(s) : 2 channels
Channel positions : Front: L R
Sampling rate : 48.0 KHz
Frame rate : 46.875 fps (1024 spf)
Compression mode : Lossy
Stream size : 158 MiB (6%)
Title : Russian Stereo
Language : Russian
Default : Yes
Alternate group : 1
Encoded date : UTC 2016-02-05 09:22:54
Tagged date : UTC 2016-02-05 09:23:21
Subtitles : 4,6
Audio #2
ID : 3
Format : AAC
Format/Info : Advanced Audio Codec
Format profile : LC
Codec ID : 40
Duration : 2h 21mn
Bit rate mode : Variable
Bit rate : 157 Kbps
Maximum bit rate : 244 Kbps
Channel(s) : 2 channels
Channel positions : Front: L R
Sampling rate : 48.0 KHz
Frame rate : 46.875 fps (1024 spf)
Compression mode : Lossy
Stream size : 159 MiB (6%)
Title : English Stereo
Language : English
Default : No
Alternate group : 1
Encoded date : UTC 2016-02-05 09:22:54
Tagged date : UTC 2016-02-05 09:23:21
Text #1
ID : 4
Format : Timed Text
Muxing mode : sbtl
Codec ID : tx3g
Duration : 2h 14mn
Bit rate mode : Variable
Bit rate : 2 bps
Stream size : 2.05 KiB (0%)
Title : Russian forced
Language : Russian
Default : Yes
Forced : Yes
Alternate group : 2
Encoded date : UTC 2016-02-05 09:22:54
Tagged date : UTC 2016-02-05 09:23:20
Subtitles For : 2
Full Alternative : 6
Text #2
ID : 5
Format : Timed Text
Muxing mode : sbtl
Codec ID : tx3g
Duration : 2h 21mn
Bit rate mode : Variable
Bit rate : 2 bps
Stream size : 1.97 KiB (0%)
Title : Ukrainian forced
Language : Ukrainian
Default : No
Forced : Yes
Alternate group : 2
Encoded date : UTC 2016-02-05 09:22:54
Tagged date : UTC 2016-02-05 09:23:20
Text #3
ID : 6
Format : Timed Text
Muxing mode : sbtl
Codec ID : tx3g
Duration : 2h 14mn
Bit rate mode : Variable
Bit rate : 108 bps
Stream size : 106 KiB (0%)
Title : Russian full
Language : Russian
Default : No
Forced : No
Alternate group : 2
Encoded date : UTC 2016-02-05 09:22:54
Tagged date : UTC 2016-02-05 09:23:20
Subtitles For : 2
Forced Alternative : 4
Text #4
ID : 7
Format : Timed Text
Muxing mode : sbtl
Codec ID : tx3g
Duration : 2h 14mn
Bit rate mode : Variable
Bit rate : 102 bps
Stream size : 100 KiB (0%)
Title : Ukrainian full
Language : Ukrainian
Default : No
Forced : No
Alternate group : 2
Encoded date : UTC 2016-02-05 09:22:54
Tagged date : UTC 2016-02-05 09:23:20
Forced Alternative : 7
Text #5
ID : 8
Format : Timed Text
Muxing mode : sbtl
Codec ID : tx3g
Duration : 2h 11mn
Bit rate mode : Variable
Bit rate : 77 bps
Stream size : 73.7 KiB (0%)
Title : English full
Language : English
Default : No
Forced : No
Alternate group : 2
Encoded date : UTC 2016-02-05 09:22:54
Tagged date : UTC 2016-02-05 09:23:19
Text #6
ID : 9
Format : Timed Text
Muxing mode : sbtl
Codec ID : tx3g
Duration : 2h 11mn
Bit rate mode : Variable
Bit rate : 84 bps
Stream size : 80.4 KiB (0%)
Title : English SDH
Language : English
Default : No
Forced : No
Alternate group : 2
Encoded date : UTC 2016-02-05 09:22:54
Tagged date : UTC 2016-02-05 09:23:19
Menu #1
00:00:00.000 : Chapter 1
00:10:29.295 : Chapter 2
00:17:46.565 : Chapter 3
00:22:09.912 : Chapter 4
00:25:27.985 : Chapter 5
00:31:17.375 : Chapter 6
00:37:45.805 : Chapter 7
00:45:29.352 : Chapter 8
00:52:36.779 : Chapter 9
01:00:38.635 : Chapter 10
01:07:17.951 : Chapter 11
01:16:52.483 : Chapter 12
01:33:55.755 : Chapter 13
01:45:41.835 : Chapter 14
01:56:31.276 : Chapter 15
02:07:20.633 : Chapter 16
02:14:18.133 : Chapter 17
Menu #2
ID : 10
Codec ID : text
Duration : 2h 21mn
Language : English
Encoded date : UTC 2016-02-05 09:23:21
Tagged date : UTC 2016-02-05 09:23:21
Menu For : 1
00:00:00.000 : Chapter 1
00:10:29.295 : Chapter 2
00:17:46.565 : Chapter 3
00:22:09.912 : Chapter 4
00:25:27.985 : Chapter 5
00:31:17.375 : Chapter 6
00:37:45.805 : Chapter 7
00:45:29.352 : Chapter 8
00:52:36.779 : Chapter 9
01:00:38.635 : Chapter 10
01:07:17.951 : Chapter 11
01:16:52.483 : Chapter 12
01:33:55.755 : Chapter 13
01:45:41.835 : Chapter 14
01:56:31.276 : Chapter 15
02:07:20.633 : Chapter 16
02:14:18.133 : Chapter 17
Bit rate mode : VBR-x264 лог
x264 [info]: frame I:1345 Avg QP:12.84 size: 82605
x264 [info]: frame P:44184 Avg QP:15.82 size: 26505
x264 [info]: frame B:157779 Avg QP:18.69 size: 6650
x264 [info]: consecutive B-frames: 1.9% 4.1% 6.7% 16.3% 19.6% 35.5% 15.9%
x264 [info]: mb I I16..4: 11.5% 63.0% 25.5%
x264 [info]: mb P I16..4: 1.1% 7.8% 2.1% P16..4: 33.9% 28.1% 17.4% 0.0% 0.0% skip: 9.5%
x264 [info]: mb B I16..4: 0.1% 1.0% 0.2% B16..8: 39.8% 10.0% 3.1% direct: 3.9% skip:42.0% L0:45.0% L1:44.9% BI:10.1%
x264 [info]: 8x8 transform intra:71.5% inter:64.3%
x264 [info]: coded y,uvDC,uvAC intra: 89.8% 77.4% 52.3% inter: 26.4% 17.6% 2.5%
x264 [info]: i16 v,h,dc,p: 34% 14% 9% 44%
x264 [info]: i8 v,h,dc,ddl,ddr,vr,hd,vl,hu: 11% 8% 5% 10% 14% 14% 13% 12% 12%
x264 [info]: i4 v,h,dc,ddl,ddr,vr,hd,vl,hu: 10% 8% 3% 10% 15% 15% 14% 12% 13%
x264 [info]: i8c dc,h,v,p: 40% 25% 21% 14%
x264 [info]: Weighted P-Frames: Y:3.9% UV:1.3%
x264 [info]: ref P L0: 44.5% 10.5% 18.5% 6.9% 6.5% 4.1% 4.2% 2.1% 2.4% 0.2% 0.0%
x264 [info]: ref B L0: 69.1% 13.8% 6.8% 3.9% 2.5% 2.2% 1.1% 0.4%
x264 [info]: ref B L1: 90.7% 9.3%
x264 [info]: kb/s:2199.53

Скриншоты

Яндекс.Метрика
Рейтинг@Mail.ru