[ Сегодня на трекере фрилич! Идет свободное скачивание без начисления Download ]

Упадок / Decadencia (2015) BDRip 720p | L2

 

Создавать темы 04-Фев-2016 17:37

Упадок / DecadenciaГод выхода: 2015
Жанр: драма, мелодрама
Режиссер: Хоакин Родригес
В ролях:
Алехандро Эстрада, Натали Уманья, Роберто Паласуэлос, Jose Luis Altamirano, Ileana Judith Arana, Orlando Ramos Becerra, Diana Cardona, Хуан Пабло Кастанеда, Elizabeth Diaz Gandara, Romina Maren Garcia
О фильме:
Аннабель Болио-молодая и красивая модель, а Оскар Прац - блестящий предприниматель. Между ними вспыхивает искра от которого разгорается страстный роман, но их любовь быстро превращается в сексуальный кошмар...


Выпущено: Мексика / Three Great Lights Films
Продолжительность: 01:31:04
Озвучивание: Любительское (двухголосое) [Galina Vasyukova & datynet], перевод [Куценко]
Файл
Формат: MKV
Качество: BDRip 720p
Видео: MPEG-4 AVC, 5192 kb/s, 1280x674
Аудио: Russian: AC3, 192 kb/s (2 ch) / Spanish: AC3, 640 kb/s (6 ch)
Субтитры: English

MI

Format                         : Matroska
Format version                 : Version 2
File size                      : 3.91 GiB
Duration                       : 1h 31mn
Overall bit rate               : 6 146 Kbps
Encoded date                   : UTC 2016-02-03 23:58:58
Writing application            : mkvmerge v7.8.0 ('River Man') 32bit built on Apr  3 2015 12:11:22
Writing library                : libebml v1.3.1 + libmatroska v1.4.2
Video
ID                             : 1
Format                         : AVC
Format/Info                    : Advanced Video Codec
Format profile                 : [email protected]
Format settings, CABAC         : Yes
Format settings, ReFrames      : 9 frames
Codec ID                       : V_MPEG4/ISO/AVC
Duration                       : 1h 31mn
Bit rate                       : 5 192 Kbps
Width                          : 1 280 pixels
Height                         : 674 pixels
Display aspect ratio           : 1.899
Frame rate mode                : Constant
Frame rate                     : 23.976 fps
Color space                    : YUV
Chroma subsampling             : 4:2:0
Bit depth                      : 8 bits
Scan type                      : Progressive
Bits/(Pixel*Frame)             : 0.251
Stream size                    : 3.30 GiB (84%)
Writing library                : x264 core 142 r2431+42 c69a006 tMod [[email protected] X86_64]
Encoding settings              : cabac=1 / ref=9 / deblock=1:-3:-3 / analyse=0x3:0x133 / me=umh / subme=11 / psy=1 / fade_compensate=0.00 / psy_rd=1.05:0.15 / mixed_ref=1 / me_range=32 / chroma_me=1 / trellis=2 / 8x8dct=1 / cqm=0 / deadzone=21,11 / fast_pskip=0 / chroma_qp_offset=-3 / threads=36 / lookahead_threads=5 / sliced_threads=0 / nr=0 / decimate=0 / interlaced=0 / bluray_compat=0 / constrained_intra=0 / fgo=0 / bframes=8 / b_pyramid=2 / b_adapt=2 / b_bias=0 / direct=3 / weightb=1 / open_gop=0 / weightp=2 / keyint=240 / keyint_min=23 / scenecut=40 / intra_refresh=0 / rc_lookahead=60 / rc=crf / mbtree=1 / crf=15.0000 / qcomp=0.60 / qpmin=0:0:0 / qpmax=69:69:69 / qpstep=4 / vbv_maxrate=40000 / vbv_bufsize=30000 / crf_max=0.0 / nal_hrd=none / filler=0 / ip_ratio=1.40 / aq=1:1.00 / aq-sensitivity=10.00 / aq-factor=1.00:1.00:1.00 / aq2=0 / aq3=0
Language                       : Spanish
Default                        : Yes
Forced                         : No
Audio #1
ID                             : 2
Format                         : AC-3
Format/Info                    : Audio Coding 3
Mode extension                 : CM (complete main)
Format settings, Endianness    : Big
Codec ID                       : A_AC3
Duration                       : 1h 31mn
Bit rate mode                  : Constant
Bit rate                       : 192 Kbps
Channel(s)                     : 2 channels
Channel positions              : Front: L R
Sampling rate                  : 48.0 KHz
Bit depth                      : 16 bits
Compression mode               : Lossy
Stream size                    : 125 MiB (3%)
Language                       : Russian
Default                        : Yes
Forced                         : No
Audio #2
ID                             : 3
Format                         : AC-3
Format/Info                    : Audio Coding 3
Mode extension                 : CM (complete main)
Format settings, Endianness    : Big
Codec ID                       : A_AC3
Duration                       : 1h 31mn
Bit rate mode                  : Constant
Bit rate                       : 640 Kbps
Channel(s)                     : 6 channels
Channel positions              : Front: L C R, Side: L R, LFE
Sampling rate                  : 48.0 KHz
Bit depth                      : 16 bits
Compression mode               : Lossy
Stream size                    : 417 MiB (10%)
Language                       : Spanish
Default                        : No
Forced                         : No
Text
ID                             : 4
Format                         : PGS
Muxing mode                    : zlib
Codec ID                       : S_HDMV/PGS
Codec ID/Info                  : Picture based subtitle format used on BDs/HD-DVDs
Language                       : English
Default                        : No
Forced                         : No
Menu
00:00:00.000                   : en:Chapter 01
00:04:20.634                   : en:Chapter 02
00:10:50.441                   : en:Chapter 03
00:15:27.259                   : en:Chapter 04
00:19:10.606                   : en:Chapter 05
00:24:13.868                   : en:Chapter 06
00:30:21.193                   : en:Chapter 07
00:35:48.396                   : en:Chapter 08
00:39:40.378                   : en:Chapter 09
00:42:27.545                   : en:Chapter 10
00:47:57.291                   : en:Chapter 11
00:49:21.750                   : en:Chapter 12
00:53:15.650                   : en:Chapter 13
00:57:38.036                   : en:Chapter 14
01:02:16.273                   : en:Chapter 15
01:08:16.466                   : en:Chapter 16
01:12:33.974                   : en:Chapter 17
01:17:17.841                   : en:Chapter 18
01:21:55.868                   : en:Chapter 19
01:27:47.470                   : en:Chapter 20
01:31:03.497                   : en:Chapter 21

Скриншоты:

Яндекс.Метрика
Рейтинг@Mail.ru