От заката до рассвета / From Dusk Till Dawn: The Series [S01-02] (2014-2015) WEB-DLRip от Generalfilm | КПК | LostFilm

 

Создавать темы 31-Янв-2016 15:28

От заката до рассвета / From Dusk Till Dawn: The SeriesГод выпуска: 2014
Жанр: Ужасы, боевик, криминал
Режиссер: Роберт Родригес, Джо Менендес, Эдуардо Санчес
В ролях:
Ди Джей Котрона, Зейн Холц, Джесси Гарсиа, Эйса Гонсалес, Уилмер Вальдеррама, Эдрианн Палики, Джейк Бьюзи, Дон Джонсон, Мэдисон Девенпорт, Лэйн Гаррисон, Роберт Патрик, Брэндон Су Ху
О фильме:
Сет Гекко, грабитель банков, и его не совсем психически стабильный братец Ричард находятся в розыске. Разыскивают их не только ФБР, но и техасские законники — шериф МакГроу и рейнджер Гонсалес, которые утраивают усилия после того, как после очередного ограбления, устроенного братьями Гекко, в банке остается несколько трупов. Пытаясь удрать в Мексику, Гекко сталкиваются с бывшим священником Джейкобом Фуллером и его семьей, которых берут в заложники и в их же трейлере отправляются к мексиканской границе. Заехав в небольшой стрип-клуб по дороге, они неудачно знакомятся с целой прорвой жаждущих крови вампиров и пытаются хотя бы дожить до рассвета, не говоря уже о том, чтобы истребить как можно больше чудовищ

Страна: США
Студия: FactoryMade Ventures, Miramax Films, Rodriguez International Pictures
Продолжительность: 20 х ~ 00:47:00
Перевод: Профессиональный (многоголосый, закадровый) [LostFilm]
Файл
Формат: MP4
Качество: WEB-DLRip | КПК
Видео: MPEG-4 AVC (x264), 640x360, ~500 kbps, 23.976 fps
Аудио: AAC LC, 48.0 KHz, 2 ch, 128 Kbps
Субтитры: Нет
Семпл

MI

Complete name               : E:KinoOt.Zakata.Do.Rassveta.AVC.WEB-DLRip.KPK.LF.GeneralfilmOt.Zakata.Do.Rassveta.S02.2015.AVC.WEB-DLRip.KPK.LF.GeneralfilmOt.Zakata.Do.Rassveta.s02e02.2015.AVC.WEB-DLRip.KPK.LF.Generalfilm.mp4
Format                      : MPEG-4
Codec ID                    : M4V
File size                   : 211 MiB
Duration                    : 46mn 34s
Overall bit rate mode       : Variable
Overall bit rate            : 634 Kbps
Writing application         : Lavf53.19.0
Video
ID                          : 1
Format                      : AVC
Format/Info                 : Advanced Video Codec
Format profile              : [email protected]
Format settings, CABAC      : Yes
Format settings, ReFrames   : 8 frames
Codec ID                    : avc1
Codec ID/Info               : Advanced Video Coding
Duration                    : 46mn 34s
Source duration             : 17mn 56s
Bit rate                    : 500 Kbps
Width                       : 640 pixels
Height                      : 360 pixels
Display aspect ratio        : 16:9
Frame rate mode             : Constant
Frame rate                  : 23.976 fps
Color space                 : YUV
Chroma subsampling          : 4:2:0
Bit depth                   : 8 bits
Scan type                   : Progressive
Bits/(Pixel*Frame)          : 0.091
Stream size                 : 167 MiB (79%)
Source stream size          : 167 MiB (79%)
Writing library             : x264 core 130 r2273 b3065e6
Encoding settings           : cabac=1 / ref=8 / deblock=1:-2:-2 / analyse=0x3:0x133 / me=umh / subme=10 / psy=1 / psy_rd=1.00:0.00 / mixed_ref=1 / me_range=24 / chroma_me=1 / trellis=2 / 8x8dct=1 / cqm=0 / deadzone=21,11 / fast_pskip=1 / chroma_qp_offset=-2 / threads=12 / lookahead_threads=2 / sliced_threads=0 / nr=0 / decimate=0 / interlaced=0 / bluray_compat=0 / constrained_intra=0 / bframes=8 / b_pyramid=2 / b_adapt=2 / b_bias=0 / direct=3 / weightb=1 / open_gop=0 / weightp=2 / keyint=240 / keyint_min=121 / scenecut=40 / intra_refresh=0 / rc_lookahead=40 / rc=2pass / mbtree=1 / bitrate=500 / ratetol=1.0 / qcomp=0.60 / qpmin=0 / qpmax=69 / qpstep=4 / cplxblur=20.0 / qblur=0.5 / ip_ratio=1.40 / aq=1:1.00
mdhd_Duration               : 2794922
Audio
ID                          : 2
Format                      : AAC
Format/Info                 : Advanced Audio Codec
Format profile              : LC
Codec ID                    : 40
Duration                    : 46mn 34s
Bit rate mode               : Variable
Bit rate                    : 128 Kbps
Channel(s)                  : 2 channels
Channel positions           : Front: L R
Sampling rate               : 48.0 KHz
Compression mode            : Lossy
Stream size                 : 42.6 MiB (20%)

Список серий:

Сезон 1
01. Пилот / Pilot
02. Кровь не вода / Blood Runs Thick
03. Госпожа / Mistress
04. Давайте путешествовать / Let's Get Ramblin
05. Само­достаточные / Self-Contained
06. Кладбище всех дорог / Place of Dead Roads
07. Пандемониум / Pandemonium
08. Конкиста / La Conquista
09. Взломщик / Boxman
10. Доля / The Take
Сезон 2
01. Ночь открытия (Opening Night)
02. В темное время суток (In a Dark Time)
03. Нападение гигантской Секс-машины (Attack of the 50 Ft. Sex Machine)
04. Самый лучший магазинчик ужасов в Техасе (The Best Little Horror House in Texas)
05. Неволя (Bondage)
06. Странные сказки (Bizarre Tales)
07. Принесите мне голову Сантанико Пандемониум
08. Последнее искушение Ричарда Гекко (The Last Temptation of Richard Gecko)
09. Да прольётся кровь (There Will Be Blood)
10. Священная кровь (Santa Sangre)

Скриншоты:

Релиз от:
Яндекс.Метрика
Рейтинг@Mail.ru