Шпионский мост / Bridge of Spies (2015) BDRip от ExKinoRay | Чистый звук

 

Создавать темы 29-Янв-2016 22:24

Информация о фильме
Название: Шпионский мост
Оригинальное название: Bridge of Spies
Год выпуска: 2015-Жанр: триллер, драма, биография
Режиссер: Стивен Спилберг
В ролях: Том Хэнкс (James B. Donovan), Марк Райлэнс (Rudolf Abel), Эми Райан (Mary Donovan), Алан Алда (Thomas Watters Jr.), Остин Стоуэлл (Francis Gary Powers), Скотт Шеперд (Hoffman), Джесси Племонс (Joe Murphy), Доменик Ломбардоззи (Agent Blasco), Себастьян Кох (Wolfgang Vogel), Ив Хьюсон (Carol Donovan), Дэкин Мэтьюз (Judge Byers), Майкл Гэстон (Agent Williams)-О фильме:
Действие фильма происходит на фоне серии реальных исторических событий и рассказывает о бруклинском адвокате Джеймсе Доноване, который оказывается в эпицентре холодной войны, когда ЦРУ отправляет его на практически невозможное задание - договориться об освобождении захваченного в СССР американского пилота самолета-разведчика U2.

Выпущено: США, Индия, Германия / Amblin Entertainment, DreamWorks SKG, Fox 2000 Pictures
Продолжительность: 02:21:19
Перевод: Дубляж - [Чистый звук] (Без рекламы)
Файл
Кодек: XVID 73
Качество: BDRip
Видео: XviD, 1822 Кбит/с, 720x304
Аудио: AC-3, 5.1 ch, 384 kbps | Русский дубляж (центральный канал line) - WetY
Размер: 2.19 ГБ
Субтитры: русские (Forced)вшитые на надписи + на иностранную речь-Релиз от:
Rip by: Vovan366-

MI

Общее
Полное имя : D:ВидеоШпионский мост.Bridge of Spies.2015.BDRip by Vovan366(ExKinoRay).avi
Формат : AVI
Формат/Информация : Audio Video Interleave
Профиль формата : OpenDML
Размер файла : 2,19 Гбайт
Продолжительность : 2 ч. 21 м.
Общий поток : 2218 Кбит/сек
Программа кодирования : VirtualDubMod 1.5.10.3 (build 2550/release)
Библиотека кодирования : VirtualDubMod build 2550/release
Видео
Идентификатор : 0
Формат : MPEG-4 Visual
Профиль формата : Advanced [email protected]
Параметр BVOP формата : 2
Параметр QPel формата : Нет
Параметр GMC формата : Без точки перехода
Параметр матрицы формата : Выборочная
Идентификатор кодека : XVID
Идентификатор кодека/Подсказка : XviD
Продолжительность : 2 ч. 21 м.
Битрейт : 1822 Кбит/сек
Ширина : 720 пикселей
Высота : 304 пикселя
Соотношение сторон : 2,35:1
Частота кадров : 23,976 кадра/сек
Цветовое пространство : YUV
Субдискретизация насыщенности : 4:2:0
Битовая глубина : 8 бит
Тип развёртки : Прогрессивная
Метод сжатия : С потерями
Бит/(Пиксели*Кадры) : 0.347
Размер потока : 1,80 Гбайт (82%)
Библиотека кодирования : XviD 73
Аудио
Идентификатор : 1
Формат : AC-3
Формат/Информация : Audio Coding 3
Расширение режима : CM (complete main)
Параметр Endianness формата : Big
Идентификатор кодека : 2000
Продолжительность : 2 ч. 21 м.
Вид битрейта : Постоянный
Битрейт : 384 Кбит/сек
Каналы : 6 каналов
Расположение каналов : Front: L C R, Side: L R, LFE
Частота : 48,0 КГц
Битовая глубина : 16 бит
Метод сжатия : С потерями
Размер потока : 388 Мбайт (17%)
Выравнивание : Разделение по промежуткам
Продолжительность промежутка : 42 мс. (1,00 видеокадр)
Время предзагрузки промежутка : 500 мс.

Скриншоты

Яндекс.Метрика
Рейтинг@Mail.ru