[ Сегодня на трекере фрилич! Идет свободное скачивание без начисления Download ]

Седьмое путешествие Синдбада / The 7th Voyage of Sinbad ( Нэйтан Юран)[1958,фэнтези, боевик, приключения,семейный, BDRip 1080p] от FREEISLAND

 

Создавать темы 25-Дек-2013 16:06

Седьмое путешествие СиндбадаThe 7th Voyage of Sinbad«8th Wonder of the Screen!» Год выпуска: 1958
Страна: США
Жанр: фэнтези, боевик, приключения,семейный
Продолжительность: 01:28:09
Перевод: Профессиональный (дублированный)
Режиссер: Нэйтан Юран

В ролях: Кервин Мэтьюз / Kerwin Mathews (Sinbad), Кэтрин Грант / Kathryn Grant (Princess Parisa), Ричард Айер / Richard Eyer (Baronni the Genie, $ 600 (/день)), Торин Тэтчер / Torin Thatcher (Sokurah the Magician), Алек Мэнго / Alec Mango (Caliph), Дэнни Грин / Danny Green (Karim), Харольд Каскет / Harold Kasket (Sultan), Альфред Браун / Alfred Brown (Harufa), Нана ДэХеррера / Nana DeHerrera (Sadi), Нино Фаланга / Nino Falanga (Gaunt Sailor)
Описание: Синдбад, желая избавить свою невесту от колдовских чар злого колдуна Сакуры, отправляется к волшебному острову, где его и его друзей поджидает множество опасностей и испытаний.Синдбад должен победить мерзкого одноглазого циклопа и огромного дракона, сразиться с черным чародеем — и, в конце концов, одержав победу над силами зла и освободив от заклятья любимую, отправиться вперед, навстречу новым подвигам.


Качество: BDRip 1080p
Формат: MKV
Видео кодек: H.264 (AVC)
Аудио кодеk: AC3
Видео: 1800x1080 (1.667:1), 23.976 fps, AVC, 11.4 Mbps
Аудио:
Аудио #1: AC3, 224 Kbps, 48.0 KHz, 2 ch RUS Дубляж
Аудио #2: AC3, 448 Kbps, 48.0 KHz, 2 ch RUS MVO
Аудио #3: AC3, 192 Kbps, 48.0 KHz, 2 ch RUS Ю.Живов AVO
Аудио #4: AC3, 448 Kbps, 48.0 KHz, 6 ch ENG

МедиаИнфо

General
Unique ID : 187631308618203590079104631691924386562 (0x8D2879BF6E03D389BC6F8111A502B302)
Complete name : The.7th.Voyage.of.Sinbad.1958.1080p.BDRip.F-HD.mkv
Format : Matroska
Format version : Version 4 / Version 2
File size : 7.83 GiB
Duration : 1h 28mn
Overall bit rate : 12.7 Mbps
Encoded date : UTC 2013-12-25 04:21:14
Writing application : mkvmerge v6.6.0 ('The Edge Of The In Between') built on Dec 1 2013 17:55:00
Writing library : libebml v1.3.0 + libmatroska v1.4.1
Video
ID : 1
Format : AVC
Format/Info : Advanced Video Codec
Format profile : [email protected]
Format settings, CABAC : Yes
Format settings, ReFrames : 4 frames
Codec ID : V_MPEG4/ISO/AVC
Duration : 1h 28mn
Bit rate : 11.4 Mbps
Width : 1 800 pixels
Height : 1 080 pixels
Display aspect ratio : 1.667
Frame rate mode : Constant
Frame rate : 23.976 fps
Color space : YUV
Chroma subsampling : 4:2:0
Bit depth : 8 bits
Scan type : Progressive
Bits/(Pixel*Frame) : 0.245
Stream size : 6.87 GiB (88%)
Writing library : x264 core 140 r2377 1ca7bb9
Encoding settings : cabac=1 / ref=4 / deblock=1:-2:-2 / analyse=0x3:0x113 / me=umh / subme=11 / psy=1 / psy_rd=1.00:0.25 / mixed_ref=1 / me_range=32 / chroma_me=1 / trellis=2 / 8x8dct=1 / cqm=0 / deadzone=21,11 / fast_pskip=0 / chroma_qp_offset=-4 / threads=6 / lookahead_threads=1 / sliced_threads=0 / nr=0 / decimate=1 / interlaced=0 / bluray_compat=0 / constrained_intra=0 / bframes=9 / b_pyramid=2 / b_adapt=2 / b_bias=0 / direct=3 / weightb=1 / open_gop=0 / weightp=2 / keyint=240 / keyint_min=23 / scenecut=40 / intra_refresh=0 / rc_lookahead=40 / rc=2pass / mbtree=1 / bitrate=11399 / ratetol=1.0 / qcomp=0.65 / qpmin=0 / qpmax=69 / qpstep=4 / cplxblur=20.0 / qblur=0.5 / vbv_maxrate=50000 / vbv_bufsize=62500 / nal_hrd=none / filler=0 / ip_ratio=1.40 / aq=1:0.60
Language : English
Default : Yes
Forced : No
Color primaries : BT.709
Transfer characteristics : BT.709
Matrix coefficients : BT.709
Audio #1
ID : 2
Format : AC-3
Format/Info : Audio Coding 3
Mode extension : CM (complete main)
Format settings, Endianness : Big
Codec ID : A_AC3
Duration : 1h 28mn
Bit rate mode : Constant
Bit rate : 224 Kbps
Channel(s) : 2 channels
Channel positions : Front: L R
Sampling rate : 48.0 KHz
Bit depth : 16 bits
Compression mode : Lossy
Stream size : 141 MiB (2%)
Title : дубляж
Language : Russian
Default : Yes
Forced : No
Audio #2
ID : 3
Format : AC-3
Format/Info : Audio Coding 3
Mode extension : CM (complete main)
Format settings, Endianness : Big
Codec ID : A_AC3
Duration : 1h 28mn
Bit rate mode : Constant
Bit rate : 448 Kbps
Channel(s) : 2 channels
Channel positions : Front: L R
Sampling rate : 48.0 KHz
Bit depth : 16 bits
Compression mode : Lossy
Stream size : 282 MiB (4%)
Title : многоголосый закадровый
Language : Russian
Default : No
Forced : No
Audio #3
ID : 4
Format : AC-3
Format/Info : Audio Coding 3
Mode extension : CM (complete main)
Format settings, Endianness : Big
Codec ID : A_AC3
Duration : 1h 28mn
Bit rate mode : Constant
Bit rate : 192 Kbps
Channel(s) : 2 channels
Channel positions : Front: L R
Sampling rate : 48.0 KHz
Bit depth : 16 bits
Compression mode : Lossy
Stream size : 121 MiB (2%)
Title : одноголосый закадровый (Живов)
Language : Russian
Default : No
Forced : No
Audio #4
ID : 5
Format : AC-3
Format/Info : Audio Coding 3
Mode extension : CM (complete main)
Format settings, Endianness : Big
Codec ID : A_AC3
Duration : 1h 28mn
Bit rate mode : Constant
Bit rate : 448 Kbps
Channel(s) : 6 channels
Channel positions : Front: L C R, Side: L R, LFE
Sampling rate : 48.0 KHz
Bit depth : 16 bits
Compression mode : Lossy
Stream size : 282 MiB (4%)
Language : English
Default : No
Forced : No

Знаете ли Вы, что...

★ Фильм был выпущен повторно в советский кинопрокат в 1977 году и привлёк аудиторию в количестве 37,8 млн. человек. Всего за два выпуска его посмотрели в СССР 70,1 млн. зрителей.

Скриншоты

Релиз от:
Яндекс.Метрика
Рейтинг@Mail.ru