Ограбление века / Святая вода / Holy Water (Том Рив)[2009,Драма, комедия, HDTVRip-AVC] от MediaClub | P

 

Создавать темы 25-Дек-2013 15:49

Информация о фильме
Название: Ограбление века / Святая вода
Оригинальное название: Holy Water
Год выхода: 2009
Жанр: Драма, комедия
Режиссер: Том Рив
В ролях: Адам Эстилл, Анджелин Болл, Циан Бэрри, Рэй Каллахэн, Лиза Катара, Корнелиус Кларк, Дара Клиар, Крисси Коттерилл, Дермот Краулиб, Крис Данн
О фильме:
Однажды в английской глубинке местный почтальон уговорил своих приятелей украсть грузовик виагры и затем продать его в Амстердаме на черном рынке. Сказано-сделано. После подготовки ограбление прошло без цензура и задоринки. Правда оказалось, что бочки с таблетками оборудованы радиомаяками, и теперь по следу горе-воришек идет служба безопасности фармацевтической компании.

Страна: Великобритания
Студия: Feature Productions
Продолжительность: 01:29:27
Перевод: Профессиональный многоголосый
Файл
Кодек: MPEG-4 AVC
Качество: HDTVRip (AVC)
Видео: 2050 Кбит/с, 1024x512, 25.000 кадр/с
Звук:
Аудио #1: Русский (АС3, 6 ch, 448 Кбит/с)
Аудио #2: Английский (AC3, 6 ch, 448 Кбит/с)
Семпл

Скриншоты

MI

Общее
Полное имя : Ograblenie.veka.2009.x264.HDTVRip(AVC).MediaClub.mkv
Формат : Matroska
Версия формата : Version 2
Размер файла : 1,85 Гбайт
Продолжительность : 1 ч. 29 м.
Общий поток : 2965 Кбит/сек
Дата кодирования : UTC 2013-12-24 13:46:17
Программа кодирования : mkvmerge v5.4.0 ('Piper') built on Mar 10 2012 13:34:39
Библиотека кодирования : libebml v1.2.3 + libmatroska v1.3.0
Видео
Идентификатор : 1
Формат : AVC
Формат/Информация : Advanced Video Codec
Профиль формата : [email protected]
Параметр CABAC формата : Да
Параметр ReFrames формата : 9 кадров
Идентификатор кодека : V_MPEG4/ISO/AVC
Продолжительность : 1 ч. 29 м.
Битрейт : 2050 Кбит/сек
Ширина : 1024 пикселя
Высота : 512 пикселей
Соотношение сторон : 2,000
Режим частоты кадров : Постоянный
Частота кадров : 25,000 кадров/сек
Цветовое пространство : YUV
Субдискретизация насыщенности : 4:2:0
Битовая глубина : 8 бит
Тип развёртки : Прогрессивная
Бит/(Пиксели*Кадры) : 0.156
Размер потока : 1,26 Гбайт (68%)
Библиотека кодирования : x264 core 125 r2208 d9d2288
Настройки программы : cabac=1 / ref=9 / deblock=1:-2:-2 / analyse=0x3:0x133 / me=umh / subme=10 / psy=1 / psy_rd=1.00:0.15 / mixed_ref=1 / me_range=32 / chroma_me=1 / trellis=2 / 8x8dct=1 / cqm=0 / deadzone=21,11 / fast_pskip=0 / chroma_qp_offset=-3 / threads=6 / lookahead_threads=1 / sliced_threads=0 / nr=0 / decimate=0 / interlaced=0 / bluray_compat=0 / constrained_intra=0 / bframes=8 / b_pyramid=2 / b_adapt=2 / b_bias=0 / direct=3 / weightb=1 / open_gop=0 / weightp=2 / keyint=250 / keyint_min=25 / scenecut=40 / intra_refresh=0 / rc=2pass / mbtree=0 / bitrate=2050 / ratetol=1.0 / qcomp=0.60 / qpmin=0 / qpmax=69 / qpstep=4 / cplxblur=20.0 / qblur=0.5 / ip_ratio=1.40 / pb_ratio=1.30 / aq=1:0.80
Default : Да
Forced : Нет
Аудио #1
Идентификатор : 2
Формат : AC-3
Формат/Информация : Audio Coding 3
Расширение режима : CM (complete main)
Параметр Endianness формата : Big
Идентификатор кодека : A_AC3
Продолжительность : 1 ч. 29 м.
Вид битрейта : Постоянный
Битрейт : 448 Кбит/сек
Каналы : 6 каналов
Расположение каналов : Front: L C R, Side: L R, LFE
Частота : 48,0 КГц
Битовая глубина : 16 бит
Метод сжатия : С потерями
Размер потока : 287 Мбайт (15%)
Язык : Russian
Default : Да
Forced : Нет
Аудио #2
Идентификатор : 3
Формат : AC-3
Формат/Информация : Audio Coding 3
Расширение режима : CM (complete main)
Параметр Endianness формата : Big
Идентификатор кодека : A_AC3
Продолжительность : 1 ч. 29 м.
Вид битрейта : Постоянный
Битрейт : 448 Кбит/сек
Каналы : 6 каналов
Расположение каналов : Front: L C R, Side: L R, LFE
Частота : 48,0 КГц
Битовая глубина : 16 бит
Метод сжатия : С потерями
Задержка видео : 25 мс.
Размер потока : 287 Мбайт (15%)
Язык : English
Default : Нет
Forced : Нет
Релиз от:
Яндекс.Метрика
Рейтинг@Mail.ru