[ Сегодня на трекере фрилич! Идет свободное скачивание без начисления Download ]

Макбет / Macbeth (2015) BDRip 720p | Чистый звук

 

Создавать темы 25-Янв-2016 22:07

Макбет / MacbethГод выхода: 2015
Жанр: драма, военный
Режиссер: Джастин Курзель
В ролях:
Майкл Фассбендер, Марион Котийяр, Пэдди Консидайн, Шон Харрис, Джек Рейнор, Элизабет Дебики, Дэвид Тьюлис, Росс Андерсон, Дэвид Хейман, Морис Роевз
О фильме:
Холодные поля Шотландии, военный лагерь, всегда готовый переместиться в другое место. Макбет всегда на войне, его жена, недавно потерявшая ребенка, боится потерять еще и мужа. Чтобы удержать его рядом, она начинает свой проект по устранению конкурентов в борьбе за королевскую корону.


Выпущено: Великобритания, Франция, США / Anton Capital Entertainment (ACE), Creative Scotland, DMC Film, Film 4, See-Saw Films, Studio Canal
Продолжительность: 01:52:52
Озвучивание: Дублированное [Чистый звук]
Примечание: Релиз без рекламы.
Файл
Формат: MKV
Качество: BDRip 720p
Видео: MPEG-4 AVC, 4032 kb/s, 1280x536
Аудио: Russian: AC3, 192 kb/s (2 ch) / English: DTS, 1510 kb/s (6 ch)
Субтитры: English

MI

Format                         : Matroska
Format version                 : Version 2
File size                      : 4.52 GiB
Duration                       : 1h 52mn
Overall bit rate               : 5 735 Kbps
Encoded date                   : UTC 2016-01-25 16:53:42
Writing application            : mkvmerge v7.8.0 ('River Man') 32bit built on Apr  3 2015 12:11:22
Writing library                : libebml v1.3.1 + libmatroska v1.4.2
Video
ID                             : 1
Format                         : AVC
Format/Info                    : Advanced Video Codec
Format profile                 : [email protected]
Format settings, CABAC         : Yes
Format settings, ReFrames      : 5 frames
Codec ID                       : V_MPEG4/ISO/AVC
Duration                       : 1h 52mn
Bit rate                       : 4 032 Kbps
Width                          : 1 280 pixels
Height                         : 536 pixels
Display aspect ratio           : 2.40:1
Frame rate mode                : Constant
Frame rate                     : 24.000 fps
Color space                    : YUV
Chroma subsampling             : 4:2:0
Bit depth                      : 8 bits
Scan type                      : Progressive
Bits/(Pixel*Frame)             : 0.245
Stream size                    : 3.09 GiB (68%)
Writing library                : x264 core 148 r2638 7599210
Encoding settings              : cabac=1 / ref=5 / deblock=1:-3:-3 / analyse=0x3:0x113 / me=umh / subme=8 / psy=1 / psy_rd=1.00:0.00 / mixed_ref=1 / me_range=16 / chroma_me=1 / trellis=1 / 8x8dct=1 / cqm=0 / deadzone=21,11 / fast_pskip=1 / chroma_qp_offset=-2 / threads=6 / lookahead_threads=1 / sliced_threads=0 / nr=0 / decimate=1 / interlaced=0 / bluray_compat=0 / constrained_intra=0 / bframes=3 / b_pyramid=2 / b_adapt=2 / b_bias=0 / direct=3 / weightb=1 / open_gop=0 / weightp=2 / keyint=240 / keyint_min=24 / scenecut=40 / intra_refresh=0 / rc_lookahead=50 / rc=2pass / mbtree=1 / bitrate=4032 / ratetol=1.0 / qcomp=0.60 / qpmin=0 / qpmax=69 / qpstep=4 / cplxblur=20.0 / qblur=0.5 / ip_ratio=1.40 / aq=1:1.00
Language                       : English
Default                        : Yes
Forced                         : No
Audio #1
ID                             : 2
Format                         : AC-3
Format/Info                    : Audio Coding 3
Mode extension                 : CM (complete main)
Format settings, Endianness    : Big
Codec ID                       : A_AC3
Duration                       : 1h 52mn
Bit rate mode                  : Constant
Bit rate                       : 192 Kbps
Channel(s)                     : 2 channels
Channel positions              : Front: L R
Sampling rate                  : 48.0 KHz
Bit depth                      : 16 bits
Compression mode               : Lossy
Stream size                    : 155 MiB (3%)
Language                       : Russian
Default                        : Yes
Forced                         : No
Audio #2
ID                             : 3
Format                         : DTS
Format/Info                    : Digital Theater Systems
Mode                           : 16
Format settings, Endianness    : Big
Codec ID                       : A_DTS
Duration                       : 1h 52mn
Bit rate mode                  : Constant
Bit rate                       : 1 509 Kbps
Channel(s)                     : 6 channels
Channel positions              : Front: L C R, Side: L R, LFE
Sampling rate                  : 48.0 KHz
Bit depth                      : 24 bits
Compression mode               : Lossy
Stream size                    : 1.19 GiB (26%)
Language                       : English
Default                        : No
Forced                         : No
Text #1
ID                             : 4
Format                         : UTF-8
Codec ID                       : S_TEXT/UTF8
Codec ID/Info                  : UTF-8 Plain Text
Language                       : English
Default                        : No
Forced                         : No
Text #2
ID                             : 5
Format                         : UTF-8
Codec ID                       : S_TEXT/UTF8
Codec ID/Info                  : UTF-8 Plain Text
Title                          : SDH
Language                       : English
Default                        : No
Forced                         : No
Menu
00:00:00.000                   : en:00:00:00.000
00:09:44.500                   : en:00:09:44.500
00:18:19.417                   : en:00:18:19.417
00:33:11.042                   : en:00:33:11.042
00:42:30.625                   : en:00:42:30.625
00:51:18.042                   : en:00:51:18.042
01:00:19.250                   : en:01:00:19.250
01:11:23.125                   : en:01:11:23.125
01:16:26.083                   : en:01:16:26.083
01:26:24.583                   : en:01:26:24.583
01:33:59.917                   : en:01:33:59.917
01:46:27.000                   : en:01:46:27.000

Скриншоты:

Яндекс.Метрика
Рейтинг@Mail.ru