[ Сегодня на трекере фрилич! Идет свободное скачивание без начисления Download ]

Самый лучший день (2015) WEB-DL 720p | iTunes

 

Создавать темы 25-Янв-2016 16:33

Информация о фильме
Название: Самый лучший день
Оригинальное название: Самый лучший день
Год выхода: 2015
Жанр: комедия, музыка
Режиссер: Жора Крыжовников
В ролях: Дмитрий Нагиев, Юлия Александрова, Ольга Серябкина, Инна Чурикова, Михаил Боярский, Елена Яковлева, Владислав Ветров, Валентина Мазунина, Ян Цапник, Андрей Малахов-О фильме: Успешному сотруднику ДПС Пете Васютину уже давно пора заводить семью, а он живет с мамой, хозяйкой придорожного кафе. И невеста есть — королева бензоколонки, кассирша Оля. В тот самый день, когда Петя решает сделать Оле предложение, в его служебную машину врезается пьяная поп-звезда Алина Шёпот. Чтобы избежать наказания, Алина решает соблазнить Петю…--Выпущено: Россия
Продолжительность: 01:46:54
Озвучивание: Оригинальное [iTunes]-Файл
Формат: MKV
Качество: WEB-DL 720p
Видео: MPEG-4 AVC, 4014 kb/s, 1280x720
Аудио: AC3, 384 kb/s (6 ch)

MI

Format : Matroska
Format version : Version 4 / Version 2
File size : 3.35 GiB
Duration : 1h 46mn
Overall bit rate : 4 488 Kbps
Encoded date : UTC 2016-01-24 19:11:21
Writing application : mkvmerge v8.3.0 ('Over the Horizon') 64bit
Writing library : libebml v1.3.1 + libmatroska v1.4.2
Video
ID : 1
Format : AVC
Format/Info : Advanced Video Codec
Format profile : [email protected]
Format settings, CABAC : No
Format settings, ReFrames : 2 frames
Codec ID : V_MPEG4/ISO/AVC
Duration : 1h 46mn
Bit rate : 4 014 Kbps
Width : 1 280 pixels
Height : 720 pixels
Display aspect ratio : 16:9
Frame rate mode : Constant
Frame rate : 24.000 fps
Color space : YUV
Chroma subsampling : 4:2:0
Bit depth : 8 bits
Scan type : Progressive
Bits/(Pixel*Frame) : 0.181
Stream size : 3.00 GiB (89%)
Language : English
Default : Yes
Forced : No
Color range : Limited
Color primaries : BT.709
Transfer characteristics : BT.709
Matrix coefficients : BT.709
Audio
ID : 2
Format : AC-3
Format/Info : Audio Coding 3
Mode extension : CM (complete main)
Format settings, Endianness : Big
Codec ID : A_AC3
Duration : 1h 46mn
Bit rate mode : Constant
Bit rate : 384 Kbps
Channel(s) : 6 channels
Channel positions : Front: L C R, Side: L R, LFE
Sampling rate : 48.0 KHz
Bit depth : 16 bits
Compression mode : Lossy
Stream size : 294 MiB (9%)
Language : Russian
Default : Yes
Forced : No
Menu
00:00:00.000 : en:Глава 1
00:06:21.000 : en:Глава 2
00:11:40.000 : en:Глава 3
00:17:17.000 : en:Глава 4
00:22:26.000 : en:Глава 5
00:28:25.000 : en:Глава 6
00:34:38.000 : en:Глава 7
00:41:31.000 : en:Глава 8
00:47:00.000 : en:Глава 9
00:53:24.000 : en:Глава 10
00:59:26.000 : en:Глава 11
01:04:54.000 : en:Глава 12
01:11:11.000 : en:Глава 13
01:16:52.000 : en:Глава 14
01:22:58.000 : en:Глава 15
01:28:08.000 : en:Глава 16
01:33:29.000 : en:Глава 17
01:39:37.000 : en:Глава 18

Скриншоты:

Яндекс.Метрика
Рейтинг@Mail.ru