[ Сегодня на трекере фрилич! Идет свободное скачивание без начисления Download ]

(Шансон) Жека (Евгений Григорьев) - Пока не кончится любовь - 2015, FLAC (image+.cue), lossless

 

Создавать темы 23-Янв-2016 16:50

-Жека (Евгений Григорьев) - Пока не кончится любовь- Жанр: шансон
Носитель: CD
Страна-производитель диска (релиза): Россия
Год издания: 2015
Издатель (лейбл): "Юнайтед Мьюзик Групп"
Номер по каталогу: UMGLP 15-CD5044
Аудиокодек: FLAC (*.flac)
Тип рипа: image+.cue
Битрейт аудио: lossless
Продолжительность: 01:17:02
Источник (релизер): advokat-asb
Наличие сканов в содержимом раздачи: да-Треклист:
[04:07] 01. Пока не кончится любовь
[04:24] 02. Пить с ней вино
[04:35] 03. ПМЖ
[04:21] 04. Играет Дассен
[04:06] 05. Когда не нужно лишних слов
[03:52] 06. Айфон
[04:11] 07. Дорога в никуда
[04:34] 08. Моя любовь
[04:43] 09. Я, как осенний лист
[04:04] 10. Просто
[04:10] 11. Завяжу я курить
[04:13] 12. Бесаме мучо
[04:46] 13. Стой
[03:57] 14. Между небом и землей
[04:22] 15. Уйду к цыганам
[04:27] 16. Кукушка
[04:33] 17. Рюмка водки на столе
[03:45] 18. Вдыхая друг друга

Лог создания рипа

Exact Audio Copy V1.0 beta 4 from 7. December 2014
Отчёт EAC об извлечении, выполненном 26. декабря 2015, 19:32
Евгений Григорьев (Жека) / Пока не кончится любовь
Дисковод: PIONEER BD-RW   BDR-207   Adapter: 1  ID: 0
Режим чтения                 : Достоверность
Использование точного потока : Да
Отключение кэша аудио        : Да
Использование указателей C2  : Нет
Коррекция смещения при чтении                     : 667
Способность читать области Lead-in и Lead-out     : Нет
Заполнение пропущенных сэмплов тишиной            : Да
Удаление блоков с тишиной в начале и конце        : Нет
При вычислениях CRC использовались нулевые сэмплы : Да
Интерфейс                                         : Встроенный Win32-интерфейс для Win NT/2000
Выходной формат : Внутренние WAV-операции
Формат сэмплов  : 44.100 Гц; 16 бит; стерео
TOC извлечённого CD
     Трек |   Старт  | Длительность | Начальный сектор | Конечный сектор
    ---------------------------------------------------------------------
       1  |  0:00.00 |    4:06.39   |           0      |      18488
       2  |  4:06.39 |    4:23.59   |       18489      |      38272
       3  |  8:30.23 |    4:34.23   |       38273      |      58845
       4  | 13:04.46 |    4:20.41   |       58846      |      78386
       5  | 17:25.12 |    4:05.45   |       78387      |      96806
       6  | 21:30.57 |    3:51.65   |       96807      |     114196
       7  | 25:22.47 |    4:10.41   |      114197      |     132987
       8  | 29:33.13 |    4:33.26   |      132988      |     153488
       9  | 34:06.39 |    4:42.08   |      153489      |     174646
      10  | 38:48.47 |    4:03.69   |      174647      |     192940
      11  | 42:52.41 |    4:09.23   |      192941      |     211638
      12  | 47:01.64 |    4:12.18   |      211639      |     230556
      13  | 51:14.07 |    4:45.68   |      230557      |     251999
      14  | 56:00.00 |    3:56.54   |      252000      |     269753
      15  | 59:56.54 |    4:21.52   |      269754      |     289380
      16  | 64:18.31 |    4:26.22   |      289381      |     309352
      17  | 68:44.53 |    4:32.18   |      309353      |     329770
      18  | 73:16.71 |    3:44.71   |      329771      |     346641
Характеристики диапазона извлечения и сообщения об ошибках
Выбранный диапазон
     Имя файла J:\Диски\Евгений Григорьев (Жека) - Пока не кончится любовь\Евгений Григорьев (Жека) - Пока не кончится любовь.wav
     Пиковый уровень 97.9 %
     Скорость извлечения 7.6 X
     Качество диапазона 100.0 %
     CRC теста 2B2899E6
     CRC копии 2B2899E6
     Копирование... OK
Ошибок не произошло
AccurateRip: сводка
Трек  1  отсутствует в базе данных
Трек  2  отсутствует в базе данных
Трек  3  отсутствует в базе данных
Трек  4  отсутствует в базе данных
Трек  5  отсутствует в базе данных
Трек  6  отсутствует в базе данных
Трек  7  отсутствует в базе данных
Трек  8  отсутствует в базе данных
Трек  9  отсутствует в базе данных
Трек 10  отсутствует в базе данных
Трек 11  отсутствует в базе данных
Трек 12  отсутствует в базе данных
Трек 13  отсутствует в базе данных
Трек 14  отсутствует в базе данных
Трек 15  отсутствует в базе данных
Трек 16  отсутствует в базе данных
Трек 17  отсутствует в базе данных
Трек 18  отсутствует в базе данных
Ни одного трека нет в базе AccurateRip
Конец отчёта
---- CUETools DB Plugin V2.1.4
[CTDB TOCID: GEII355.jE6kJ9AodgFvocpSxGA-] disk not present in database
Submit result: GEII355.jE6kJ9AodgFvocpSxGA- has been uploaded
==== Контрольная сумма отчёта 7310BF944E154547F10356B5D548621A4FBA4CA13A16E422C1C1FE00C11BB4D2 ====
Яндекс.Метрика
Рейтинг@Mail.ru