(New Age) Cecil Harding - Cinema Music - 2008, FLAC (tracks+.cue), lossless

 

Создавать темы 23-Янв-2016 15:42

-Cecil Harding - Cinema Music- Жанр: New Age
Страна-производитель диска: Russia
Год издания: 2008
Издатель (лейбл): TME/DreaMusic (Правительство Звука)
Номер по каталогу: ПРЗ CD22785
Аудиокодек: FLAC (*.flac)
Тип рипа: tracks+.cue
Битрейт аудио: lossless
Продолжительность: 0:51:37.
Источник (релизер): clustert
Наличие сканов в содержимом раздачи: да
Треклист:
01. Dances with Wolves [0:03:45.67]
02. Carmina Burana [0:02:54.05]
03. The Piano [0:03:32.55]
04. House of the Spirits [0:03:21.20]
05. Peter's Kitchen [0:02:16.43]
06. Out of Africa [0:03:17.32]
07. Little Merlin's Lullaby [0:02:33.45]
08. The English Patient [0:03:00.60]
09. Braveheart [0:02:44.73]
10. Sense & Sensibility [0:02:44.57]
11. Merlin's Guitar [0:02:52.70]
12. Forrest Gump [0:03:41.03]
13. Patch Adams [0:02:38.25]
14. Titanic [0:03:25.47]
15. Forever Me [0:03:17.10]
16. Regarding Henry [0:04:08.08]
17. My Sister [0:01:22.00]

Лог создания рипа

Exact Audio Copy V1.0 beta 3 from 29. August 2011
Отчёт EAC об извлечении, выполненном 10. сентября 2014, 22:33
Cecil Harding / New Age - Cinema Music - Romantic Melodies
Дисковод: ASUS    DRW-1814BLT   Adapter: 4  ID: 0
Режим чтения                 : Достоверность
Использование точного потока : Да
Отключение кэша аудио        : Да
Использование указателей C2  : Нет
Коррекция смещения при чтении                     : 6
Способность читать области Lead-in и Lead-out     : Нет
Заполнение пропущенных сэмплов тишиной            : Да
Удаление блоков с тишиной в начале и конце        : Нет
При вычислениях CRC использовались нулевые сэмплы : Да
Интерфейс                                         : Встроенный Win32-интерфейс для Win NT/2000
Обработка зазоров                                 : Добавлено к предыдущему треку
Выходной формат          : Пользовательский кодировщик
Выбранный битрейт        : 128 kBit/s
Качество                 : Высокий
Добавление ID3-тега      : Нет
Утилита сжатия           : C:\Program Files\Exact Audio Copy\Flac\flac.exe
Дополнительные параметры :  -V -8 -T "Genre=%genre%" -T "Artist=%artist%" -T "Title=%title%" -T "Album=%albumtitle%" -T "Date=%year%" -T "Tracknumber=%tracknr%" -T "Comment=EAC1.0b2 FLAC -8" %source%
TOC извлечённого CD
     Трек |   Старт  | Длительность | Начальный сектор | Конечный сектор
    ---------------------------------------------------------------------
       1  |  0:00.00 |    3:45.67   |           0      |      16941
       2  |  3:45.67 |    2:54.05   |       16942      |      29996
       3  |  6:39.72 |    3:32.55   |       29997      |      45951
       4  | 10:12.52 |    3:21.20   |       45952      |      61046
       5  | 13:33.72 |    2:16.43   |       61047      |      71289
       6  | 15:50.40 |    3:17.32   |       71290      |      86096
       7  | 19:07.72 |    2:33.45   |       86097      |      97616
       8  | 21:41.42 |    3:00.60   |       97617      |     111176
       9  | 24:42.27 |    2:44.73   |      111177      |     123549
      10  | 27:27.25 |    2:44.57   |      123550      |     135906
      11  | 30:12.07 |    2:52.70   |      135907      |     148876
      12  | 33:05.02 |    3:41.03   |      148877      |     165454
      13  | 36:46.05 |    2:38.25   |      165455      |     177329
      14  | 39:24.30 |    3:25.47   |      177330      |     192751
      15  | 42:50.02 |    3:17.10   |      192752      |     207536
      16  | 46:07.12 |    4:08.08   |      207537      |     226144
      17  | 50:15.20 |    1:22.00   |      226145      |     232294
Трек  1
     Имя файла R:\Раздача 23\Cecil Harding - 2008 - Cinema Music\01 Dances with Wolves.wav
     Длина предзазора  0:00:02.00
     Пиковый уровень 98.1 %
     Скорость извлечения 5.0 X
     Качество трека 100.0 %
     CRC теста 3B3FD864
     CRC копии 3B3FD864
     Трек не обнаружен в базе AccurateRip
     Копирование... OK
Трек  2
     Имя файла R:\Раздача 23\Cecil Harding - 2008 - Cinema Music\02 Carmina Burana.wav
     Пиковый уровень 83.2 %
     Скорость извлечения 5.1 X
     Качество трека 100.0 %
     CRC теста 483D57CD
     CRC копии 483D57CD
     Трек не обнаружен в базе AccurateRip
     Копирование... OK
Трек  3
     Имя файла R:\Раздача 23\Cecil Harding - 2008 - Cinema Music\03 The Piano.wav
     Пиковый уровень 89.1 %
     Скорость извлечения 5.8 X
     Качество трека 100.0 %
     CRC теста 1056F804
     CRC копии 1056F804
     Трек не обнаружен в базе AccurateRip
     Копирование... OK
Трек  4
     Имя файла R:\Раздача 23\Cecil Harding - 2008 - Cinema Music\04 House of the Spirits.wav
     Пиковый уровень 83.3 %
     Скорость извлечения 6.1 X
     Качество трека 100.0 %
     CRC теста D45282F0
     CRC копии D45282F0
     Трек не обнаружен в базе AccurateRip
     Копирование... OK
Трек  5
     Имя файла R:\Раздача 23\Cecil Harding - 2008 - Cinema Music\05 Peter's Kitchen.wav
     Пиковый уровень 79.4 %
     Скорость извлечения 5.9 X
     Качество трека 100.0 %
     CRC теста AFC2D750
     CRC копии AFC2D750
     Трек не обнаружен в базе AccurateRip
     Копирование... OK
Трек  6
     Имя файла R:\Раздача 23\Cecil Harding - 2008 - Cinema Music\06 Out of Africa.wav
     Пиковый уровень 90.4 %
     Скорость извлечения 6.6 X
     Качество трека 100.0 %
     CRC теста CD09EF00
     CRC копии CD09EF00
     Трек не обнаружен в базе AccurateRip
     Копирование... OK
Трек  7
     Имя файла R:\Раздача 23\Cecil Harding - 2008 - Cinema Music\07 Little Merlin's Lullaby.wav
     Пиковый уровень 89.1 %
     Скорость извлечения 6.3 X
     Качество трека 100.0 %
     CRC теста B5571269
     CRC копии B5571269
     Трек не обнаружен в базе AccurateRip
     Копирование... OK
Трек  8
     Имя файла R:\Раздача 23\Cecil Harding - 2008 - Cinema Music\08 The English Patient.wav
     Пиковый уровень 86.1 %
     Скорость извлечения 6.9 X
     Качество трека 100.0 %
     CRC теста 97A69D96
     CRC копии 97A69D96
     Трек не обнаружен в базе AccurateRip
     Копирование... OK
Трек  9
     Имя файла R:\Раздача 23\Cecil Harding - 2008 - Cinema Music\09 Braveheart.wav
     Пиковый уровень 82.1 %
     Скорость извлечения 5.1 X
     Качество трека 99.9 %
     CRC теста A68AC177
     CRC копии A68AC177
     Трек не обнаружен в базе AccurateRip
     Копирование... OK
Трек 10
     Имя файла R:\Раздача 23\Cecil Harding - 2008 - Cinema Music\10 Sense & Sensibility.wav
     Пиковый уровень 88.2 %
     Скорость извлечения 7.2 X
     Качество трека 100.0 %
     CRC теста A1F2D9D2
     CRC копии A1F2D9D2
     Трек не обнаружен в базе AccurateRip
     Копирование... OK
Трек 11
     Имя файла R:\Раздача 23\Cecil Harding - 2008 - Cinema Music\11 Merlin's Guitar.wav
     Пиковый уровень 91.1 %
     Скорость извлечения 6.0 X
     Качество трека 100.0 %
     CRC теста 4C11E0BE
     CRC копии 4C11E0BE
     Трек не обнаружен в базе AccurateRip
     Копирование... OK
Трек 12
     Имя файла R:\Раздача 23\Cecil Harding - 2008 - Cinema Music\12 Forrest Gump.wav
     Пиковый уровень 82.5 %
     Скорость извлечения 8.0 X
     Качество трека 100.0 %
     CRC теста D1000835
     CRC копии D1000835
     Трек не обнаружен в базе AccurateRip
     Копирование... OK
Трек 13
     Имя файла R:\Раздача 23\Cecil Harding - 2008 - Cinema Music\13 Patch Adams.wav
     Пиковый уровень 81.4 %
     Скорость извлечения 5.7 X
     Качество трека 99.9 %
     CRC теста 0DC9E828
     CRC копии 0DC9E828
     Трек не обнаружен в базе AccurateRip
     Копирование... OK
Трек 14
     Имя файла R:\Раздача 23\Cecil Harding - 2008 - Cinema Music\14 Titanic.wav
     Пиковый уровень 89.1 %
     Скорость извлечения 5.8 X
     Качество трека 100.0 %
     CRC теста 657A5678
     CRC копии 657A5678
     Трек не обнаружен в базе AccurateRip
     Копирование... OK
Трек 15
     Имя файла R:\Раздача 23\Cecil Harding - 2008 - Cinema Music\15 Forever Me.wav
     Пиковый уровень 98.8 %
     Скорость извлечения 5.7 X
     Качество трека 100.0 %
     CRC теста 171DA28E
     CRC копии 171DA28E
     Трек не обнаружен в базе AccurateRip
     Копирование... OK
Трек 16
     Имя файла R:\Раздача 23\Cecil Harding - 2008 - Cinema Music\16 Regarding Henry.wav
     Пиковый уровень 47.0 %
     Скорость извлечения 6.2 X
     Качество трека 100.0 %
     CRC теста 4F822DDB
     CRC копии 4F822DDB
     Трек не обнаружен в базе AccurateRip
     Копирование... OK
Трек 17
     Имя файла R:\Раздача 23\Cecil Harding - 2008 - Cinema Music\17 My Sister.wav
     Пиковый уровень 97.6 %
     Скорость извлечения 4.7 X
     Качество трека 99.8 %
     CRC теста 298988C3
     CRC копии 298988C3
     Трек не обнаружен в базе AccurateRip
     Копирование... OK
Ни одного трека нет в базе AccurateRip
Ошибок не произошло
Конец отчёта
==== Контрольная сумма отчёта 06873949D67330B310906C6D616F7FDF19EDFFD2C85A94313471917E7AA3304E ====
Яндекс.Метрика
Рейтинг@Mail.ru