Апачи / Apachen (1973) DVDRip

 

Создавать темы 25-Дек-2013 02:34

-Апачи / Apachen (1973) DVDRip- Год выпуска: 1973
Производство: Германия (ГДР), Румыния, СССР | DEFA, Bucaresti Film, Мосфильм
Жанр: Вестерн
Перевод: Дублированный
Субтитры: Отсутствуют
Дата мировой премьеры: 29 июня 1973, Германия (ГДР)
Режиссер: Готтфрид Кольдиц
Сценарий: Гойко Митич, Готтфрид Кольдиц
Актеры: Гойко Митич, Милан Бели, Коля Рэуту, Леон Немчик, Джерри Вольф, Эльза Грубе-Дайстер, Фред Людвиг, Фред Дельмаре, Хартмут Бер, Хорст Кубе, Томас Вайсгербер, Хорст Шён, Вернер Каниц, Дорел Якобеску, Вилли Шраде, Херманн Экхардт, Герт Ханьш, Фриц Мор, Елена Середа, Виктор Мавродинеану, Carmen Maria Strujac, Sandu Simionica, Флорин Скэрлэтеску, Консуэла Дарье, Елена Альбу, Рольф Хоппе
Описание фильма:
Действие фильма происходит в пограничной области между США и Мексикой в 1848 году, когда Мексике пришлось уступить Америке территорию нынешних штатов Аризона, Нью-Мексико, Юта и Колорадо. Апачи племени мимбреньо в «Новой Испании» заключают с мексиканской горнопромышленной компанией договор, позволяющий мексиканцам производить разведочные работы.
Однако залежи благородных металлов привлекают сюда и американского геолога Джонсона. Он зарится на эти земли и расстреливает в селении Санта-Рита индейцев из армейской пушки. Кроме того, он получает огромную премию за их скальпы. Лишь немногие из индейцев остаются в живых и скрываются, в их числе вождь Ульзана. Законы племени требуют покарать убийцу. Смогут ли они отомстить...?

Продолжительность: 01:27:03
Качество видео: DVDRip
Видеокодек: Xvid
Битрейт видео: 2063 кбит/c
Размер кадра: 720x384
Аудиокодек: AC3 2.0
Битрейт аудио: 192 кбит/c

MediaInfo:

General
Complete name : D:\Apachen_1973.DVDRip.XviD.avi
Format : AVI
Format/Info : Audio Video Interleave
File size : 1.38 GiB
Duration : 1h 27mn
Overall bit rate : 2 265 Kbps
Writing application : VirtualDubModRus 1.5.10.2 (build 2540/release)
Writing library : VirtualDubMod build 2540/release
Video
ID : 0
Format : MPEG-4 Visual
Format profile : Advanced [email protected]
Format settings, BVOP : 1
Format settings, QPel : No
Format settings, GMC : No warppoints
Format settings, Matrix : Custom
Codec ID : XVID
Codec ID/Hint : XviD
Duration : 1h 27mn
Bit rate : 2 063 Kbps
Width : 720 pixels
Height : 384 pixels
Display aspect ratio : 1.85:1
Frame rate : 25.000 fps
Color space : YUV
Chroma subsampling : 4:2:0
Bit depth : 8 bits
Scan type : Progressive
Compression mode : Lossy
Bits/(Pixel*Frame) : 0.298
Stream size : 1.25 GiB (91%)
Writing library : XviD 1.2.0.dev47 (UTC 2006-11-01)
Audio
ID : 1
Format : AC-3
Format/Info : Audio Coding 3
Mode extension : CM (complete main)
Format settings, Endianness : Big
Codec ID : 2000
Duration : 1h 27mn
Bit rate mode : Constant
Bit rate : 192 Kbps
Channel(s) : 2 channels
Channel positions : Front: L R
Sampling rate : 48.0 KHz
Bit depth : 16 bits
Compression mode : Lossy
Delay relative to video : 16ms
Stream size : 120 MiB (8%)
Alignment : Split accross interleaves
Interleave, duration : 40 ms (1.00 video frame)
Interleave, preload duration : 500 ms
Language : English

Скриншоты

Яндекс.Метрика
Рейтинг@Mail.ru