[ Сегодня на трекере фрилич! Идет свободное скачивание без начисления Download ]

Шпионский мост / Bridge of Spies (2015) HDRip | КПК | Чистый звук

 

Создавать темы 21-Янв-2016 00:14

• Шпионский мост / Bridge of Spies • Страна: США, Германия, Индия
Производство: Amblin Entertainment, DreamWorks SKG, Fox 2000 Pictures, Marc Platt Productions, Participant Media, Reliance Entertainment, Studio Babelsberg, TSG Entertainment
Год выпуска: 2015
Жанр: триллер, драма, биография
Режиссёр: Стивен Спилберг
В ролях: Том Хэнкс, Марк Райлэнс, Эми Райан, Алан Алда, Остин Стоуэлл, Скотт Шеперд, Джесси Племонс, Доменик Ломбардоззи, Себастьян Кох, Ив Хьюсон
Перевод: Профессиональный (полное дублирование) [Чистый звук]

Описание: Действие фильма происходит на фоне серии реальных исторических событий и рассказывает о бруклинском адвокате Джеймсе Доноване, который оказывается в эпицентре холодной войны, когда ЦРУ отправляет его на практически невозможное задание — договориться об освобождении захваченного в СССР американского пилота самолета-разведчика U2.

Качество: HDRip
Продолжительность: 02:21:19
Формат: MP4
Видео кодек: H.264
Аудио кодек: AAC-LC
Свойства видео: 640x268 (2:39:1), 23.976 fps, 500 kbps (0.122 bit/pixel)

Свойства аудио: 48.0 KHz, 2 ch, 128 kbps

MediaInfo

General
Complete name : Шпионский мост.2015.HDRip.mp4
Format : MPEG-4
Format profile : Base Media
Codec ID : isom (isom/avc1/iso6)
File size : 639 MiB
Duration : 2h 21mn
Overall bit rate mode : Variable
Overall bit rate : 632 Kbps
Encoded date : UTC 2016-01-20 19:13:21
Tagged date : UTC 2016-01-20 19:13:21
Video
ID : 1
Format : AVC
Format/Info : Advanced Video Codec
Format profile : [email protected]
Format settings, CABAC : Yes
Format settings, ReFrames : 9 frames
Codec ID : avc1
Codec ID/Info : Advanced Video Coding
Duration : 2h 21mn
Bit rate : 500 Kbps
Maximum bit rate : 1 908 Kbps
Width : 640 pixels
Height : 268 pixels
Display aspect ratio : 2.40:1
Frame rate mode : Constant
Frame rate : 23.976 (24000/1001) fps
Color space : YUV
Chroma subsampling : 4:2:0
Bit depth : 8 bits
Scan type : Progressive
Bits/(Pixel*Frame) : 0.122
Stream size : 505 MiB (79%)
Title : [email protected]
Writing library : x264 core 146 r2538 121396c
Encoding settings
: cabac=1 / ref=9 / deblock=1:-3:-3 / analyse=0x3:0x113 / me=umh / subme=11 / psy=1 / psy_rd=1.00:0.00 / mixed_ref=1 / me_range=32 / chroma_me=1 / trellis=2 / 8x8dct=1 / cqm=0 / deadzone=21,11 / fast_pskip=0 / chroma_qp_offset=-2 / threads=6 / lookahead_threads=1 / sliced_threads=0 / nr=0 / decimate=0 / interlaced=0 / bluray_compat=0 / constrained_intra=0 / bframes=9 / b_pyramid=2 / b_adapt=2 / b_bias=0 / direct=3 / weightb=1 / open_gop=0 / weightp=2 / keyint=240 / keyint_min=23 / scenecut=40 / intra_refresh=0 / rc=2pass / mbtree=0 / bitrate=500 / ratetol=1.0 / qcomp=0.60 / qpmin=0 / qpmax=69 / qpstep=4 / cplxblur=20.0 / qblur=0.5 / ip_ratio=1.40 / pb_ratio=1.30 / aq=1:1.00
Encoded date : UTC 2016-01-20 19:13:21
Tagged date : UTC 2016-01-20 19:14:09
Audio
ID : 2
Format : AAC
Format/Info : Advanced Audio Codec
Format profile : LC
Codec ID : 40
Duration : 2h 21mn
Bit rate mode : Variable
Bit rate : 128 Kbps
Maximum bit rate : 147 Kbps
Channel(s) : 2 channels
Channel positions : Front: L R
Sampling rate : 48.0 KHz
Frame rate : 46.875 fps (1024 spf)
Compression mode : Lossy
Stream size : 129 MiB (20%)
Encoded date : UTC 2016-01-20 11:27:38
Tagged date : UTC 2016-01-20 19:14:09

Скриншоты

Яндекс.Метрика
Рейтинг@Mail.ru