[ Сегодня на трекере фрилич! Идет свободное скачивание без начисления Download ]

Горько! (Жора Крыжовников) [2013 г., комедия, приключения, DVD9]

 

Создавать темы 24-Дек-2013 18:19

--Горько!--«Главное не нажраться»-- Производство: Россия, Lunapark, Bazelevs
Режиссер: Жора Крыжовников
Жанр: комедия, приключения
Год выпуска: 2013 г.
Продолжительность: 01:36:51--Мировая премьера: 24 октября 2013
Премьера (РФ): 24 октября 2013, «Bazelevs Distribution»
Релиз на DVD: 5 декабря 2013, «Флагман-Трейд»--В ролях: Сергей Светлаков, Юлия Александрова, Егор Корешков, Ян Цапник, Данила Якушев, Юлия Сулес, Елена Валюшкина, Александр Паль, Сергей Лавыгин, Анастасия Добахова, Валентина Мазунина, Владимир Тебенко, Евгений Кушпель, Максим Казаков--Описание: Прогрессивные и талантливые Наташа и Рома мечтают о европейской свадьбе на берегу моря… но у Наташиного отчима заготовлен другой сценарий. Грубый чиновник городской администрации рассматривает торжество как трамплин для собственной карьеры и стремится устроить все «как надо». Молодых ждет незабываемый вечер в ресторане «Золотой» с полным набором занудных обрядов. Не в силах бороться, ребята решают провести свадьбу своей мечты в секрете от консервативных родственников. Но по нелепой случайности оба торжества сливаются воедино.-- --Качество видео: DVD9
Контейнер: DVD-Video
Видео кодек: MPEG2
Аудио кодек: AC3
Видео: PAL 16:9, 720x576, MPEG Video, 25,000 кадр/сек, 9000 Кбит/сек
Аудио: 48 kHz, AC3 Dolby Digital, 3/2 (L,C,R,l,r) + LFE ch, ~448 kbps
Cубтитры: отсутствуют

DVDInfo

Title: Gorko.2013.DVD9
Size: 7.23 Gb ( 7 579 458,00 KBytes ) - DVD-9
Enabled regions: 1, 2, 3, 4, 5, 6, 7, 8
VTS_01 :
Play Length: 01:36:51
Video: PAL 16:9 (720x576) VBR, Auto Letterboxed
Audio:
Russian (Dolby AC3, 6 ch)
VTS_02 :
Play Length: 00:24:00
Video: PAL 16:9 (720x576) VBR, Auto Letterboxed
Audio:
Russian (Dolby AC3, 2 ch)
* Menus Information *
VIDEO_TS Menu
Video:
PAL 16:9 (720x576) VBR
Auto Letterboxed
Audio:
Not specified (Dolby AC3, 2 ch)
Russian Language Unit :
Title Menu
VTS_01 Menu
Video:
PAL 16:9 (720x576) VBR
Auto Letterboxed
Audio:
Not specified (Dolby AC3, 2 ch)
Russian Language Unit :
Root Menu
VTS_02 Menu
Video:
NTSC 4:3 (720x480) VBR
Auto Pan&Scan, Auto Letterboxed
Russian Language Unit :
Root Menu

Media Info

Полное имя : D:\Torrent 2\Gorko.2013.DVD9VIDEO_TSVTS_01_2.VOB
Формат : MPEG-PS
Размер файла : 1024 Мбайт
Продолжительность : 14 м.
Общий поток : 9601 Кбит/сек
Видео
Идентификатор : 224 (0xE0)
Формат : MPEG Video
Версия формата : Version 2
Профиль формата : [email protected]
Параметр BVOP формата : Да
Параметр матрицы формата : Выборочная
Параметр GOP формата : Variable
Продолжительность : 14 м.
Битрейт : 9000 Кбит/сек
Ширина : 720 пикселей
Высота : 576 пикселей
Соотношение сторон : 16:9
Частота кадров : 25,000 кадров/сек
Стандарт вещания : PAL
Цветовое пространство : YUV
Субдискретизация насыщенности : 4:2:0
Битовая глубина : 8 бит
Тип развёртки : Чересстрочная
Порядок развёртки : Нижнее поле первое
Метод сжатия : С потерями
Бит/(Пиксели*Кадры) : 0.868
Временной код первого кадра : 01:14:55:02
Оригинал временного кода : Group of pictures header
Размер потока : 956 Мбайт (93%)
Аудио
Идентификатор : 189 (0xBD)-128 (0x80)
Формат : AC-3
Формат/Информация : Audio Coding 3
Расширение режима : CM (complete main)
Параметр Endianness формата : Big
Режим смешивания : DVD-Video
Продолжительность : 14 м.
Вид битрейта : Постоянный
Битрейт : 448 Кбит/сек
Каналы : 6 каналов
Расположение каналов : Front: L C R, Side: L R, LFE
Частота : 48,0 КГц
Битовая глубина : 16 бит
Метод сжатия : С потерями
Задержка видео : -472 мс.
Размер потока : 47,8 Мбайт (5%)

Скриншоты меню

Скриншоты фильма

Скриншоты доп. материалов

Трейлер


Последний раз редактировалось: DDGroup (2013-12-24 19:36), всего редактировалось 1 раз

Создавать темы 24-Дек-2013 18:22 (спустя 3 минуты)

Топик был перенесен из форума Отечественные Новинки (HD*Rip/LQ, DVDRip) в форум Новинки (DVD)
[email protected]

Создавать темы 31-Янв-2016 14:01 (спустя 2 года 1 месяц)

Топик был перенесен из форума Новинки (DVD) в форум Отечественные Фильмы (DVD)
T_O_M
Яндекс.Метрика
Рейтинг@Mail.ru