Метеорит [01-08 из 08] (2016,Детектив, мистика) SATRip-AVC

 

Создавать темы 17-Янв-2016 03:12

Метеорит [01-08 из 08] (2016) SATRip-AVC
--
Год выпуска: 2015
Производство: Россия, «Авиатор Продакшн»
Жанр: детектив, мистика
Режиссёр: Александр Даруга
--
В ролях: Константин Стрельников, Светлана Иванова, Максим Литовченко, Павел Кузьмин, Анна Миклош, Дмитрий Астрахан, Михаил Горевой, Алексей Тимошкин, Юрий Ваксман, Марат Гибадуллин, Анзор Камариддинов, Андрей Багиров, Даниил Филенко , Роман Колотухин, Евгений Мундум

--
О фильме: Московский опер-розыскник Леонид Жаров (Константин Стрельников) приезжает в маленький городок Безреченск, чтобы по заданию руководства расследовать массовое исчезновение жителей города. Ведь за последний год в Безреченске бесследно исчезли двадцать пять человек, и с каждым днем количество пропавших растет.Местные жители связывают загадочные события с падением метеорита возле старых рудников. Сильнейший взрыв «тряхнул» весь город, и именно после него и началась вся эта чертовщина. Но Жаров не верит в чудеса, инопланетян и чертей. Он верит в логику и здравый смысл, поэтому общается с родственниками пропавших, пытаясь найти общие обстоятельства загадочных исчезновений. Однако никаких параллелей обнаружить не удается. Никаких свидетелей тоже нет.
--

--
Страна: Россия
Студия: Студия, «Авиатор Продакшн»
Продолжительность: ~ 00:45:00 серия
Перевод: Не требуется
Файл
Кодек: H.264
Качество: SATRip-AVC
Видео: ~ 1835 Кбит/с, 720x400
Звук: AC3, 48 kHz, ~192 Kbps, 2 канала

--

MI

Общее
Уникальный идентификатор                 : 254673388953989414322998796282048343550 (0xBF984F8255CC6F8BBE5516D97200EDFE)
Полное имя                               : E:\Метеорит\Метеорит_01 серия rip by_Aleksan55.mkv
Формат                                   : Matroska
Версия формата                           : Version 2
Размер файла                             : 595 Мбайт
Продолжительность                        : 45 м.
Общий поток                              : 1835 Кбит/сек
Дата кодирования                         : UTC 2016-01-16 12:41:09
Программа кодирования                    : mkvmerge v7.8.0 ('River Man') 32bit built on Apr  3 2015 12:11:22
Библиотека кодирования                   : libebml v1.3.1 + libmatroska v1.4.2
Видео
Идентификатор                            : 1
Формат                                   : AVC
Формат/Информация                        : Advanced Video Codec
Профиль формата                          : [email protected]
Параметр CABAC формата                   : Да
Параметр ReFrames формата                : 9 кадров
Идентификатор кодека                     : V_MPEG4/ISO/AVC
Продолжительность                        : 45 м.
Битрейт                                  : 1606 Кбит/сек
Ширина                                   : 720 пикселей
Высота                                   : 400 пикселей
Соотношение сторон                       : 1,85:1
Режим частоты кадров                     : Постоянный
Частота кадров                           : 25,000 кадров/сек
Цветовое пространство                    : YUV
Субдискретизация насыщенности            : 4:2:0
Битовая глубина                          : 8 бит
Тип развёртки                            : Прогрессивная
Бит/(Пиксели*Кадры)                      : 0.223
Размер потока                            : 521 Мбайт (88%)
Библиотека кодирования                   : x264 core 146 r2538 121396c
Настройки программы                      : cabac=1 / ref=9 / deblock=1:-3:-3 / analyse=0x3:0x133 / me=umh / subme=9 / psy=1 / psy_rd=1.00:0.25 / mixed_ref=0 / me_range=32 / chroma_me=1 / trellis=2 / 8x8dct=1 / cqm=0 / deadzone=21,11 / fast_pskip=1 / chroma_qp_offset=-4 / threads=2 / lookahead_threads=1 / sliced_threads=0 / nr=0 / decimate=1 / interlaced=0 / bluray_compat=0 / constrained_intra=0 / bframes=9 / b_pyramid=2 / b_adapt=1 / b_bias=0 / direct=1 / weightb=1 / open_gop=0 / weightp=2 / keyint=250 / keyint_min=25 / scenecut=40 / intra_refresh=0 / rc_lookahead=40 / rc=crf / mbtree=1 / crf=17.0 / qcomp=0.60 / qpmin=0 / qpmax=69 / qpstep=4 / ip_ratio=1.40 / aq=1:1.20
Default                                  : Да
Forced                                   : Нет
Цветовой диапазон                        : Limited
Основные цвета                           : BT.601 PAL
Характеристики трансфера                 : BT.470 System B, BT.470 System G
Коэффициенты матрицы                     : BT.601
Аудио
Идентификатор                            : 2
Формат                                   : AC-3
Формат/Информация                        : Audio Coding 3
Расширение режима                        : CM (complete main)
Параметр Endianness формата              : Big
Идентификатор кодека                     : A_AC3
Продолжительность                        : 45 м.
Вид битрейта                             : Постоянный
Битрейт                                  : 192 Кбит/сек
Каналы                                   : 2 канала
Расположение каналов                     : Front: L R
Частота                                  : 48,0 КГц
Метод сжатия                             : С потерями
Размер потока                            : 62,3 Мбайт (10%)
Default                                  : Да
Forced                                   : Нет

Внимание! Раздача ведётся путём добавления новых серий

Внимание! Раздача ведётся путём добавления новых серий; при каждом добавлении создаётся новый торрент.
Чтобы начать докачку новой серии, пользователям необходимо сделать следующее:
1. Остановить скачивание;
2. Удалить старый торрент у себя из клиента (старые серии удалять не надо);
3. Скачать новый торрент и запустить его у себя в клиенте вместо старого, при этом указать клиенту путь в старую папку куда и должно происходить скачивание новых серий. Ваш клиент при этом должен произвести хеширование (проверку) старой папки и будет докачивать только те серии, которых у вас ещё нет. Старые серии при этом не удаляются, а продолжают раздаваться! Eсли вы уже удалили старые серии, то предотвратить повторную закачку старых серий можно, отжав галочку в соответствующих местах при запуске нового торрента.

Скриншоты

--Рекламы нет.

Создавать темы 18-Янв-2016 01:33 (спустя 22 часа)

Добавлена 5-8 серия.
Яндекс.Метрика
Рейтинг@Mail.ru