Здравствуй, папа, Новый год / Daddy's Home (2015) CamRip

 

Создавать темы 15-Янв-2016 20:51

- Здравствуй, папа, Новый год / Daddy's Home (2015) CamRip - Производство: США / Gary Sanchez Productions, Good Universe, Paramount Pictures
Жанр: Комедия
Режиссер: Шон Андерс
Продюсер: Уилл Феррелл, Крис Хенчи, Адам МакКей,
Актеры: Уилл Феррелл, Марк Уолберг, Линда Карделлини,
Томас Хейден Чёрч, Скарлет Эстевез, Оуэн Ваккаро, Бобби Каннавале,
Хэннибал Бёресс, Билл Бёрр, Джейми Денбо
Описание:
Отец двоих детей возвращается к своей бывшей жене,
которая успела выйти замуж, и теперь его ждет соперничество
с отчимом за внимание своих отпрысков.

Дата мировой премьеры: 9 декабря 2015
Дата премьеры в России: 7 января 2016, «Централ Партнершип»
Продолжительность: 01:31:37
Качество видео: CamRip
Перевод: Дублированный
Вид субтитров: Отсутствуют
Реклама: Присутствуют голосовые и текстовые вставки рекламы.
Видео: Xvid, 720x320, ~1932 kb/s
Аудио: AC3, 2 ch, 192 kb/s
Семпл: Скачать

Mediainfo:

Общее
Полное имя                               : Papa.Noviy.God.2015.D.CAMRip.1400MB.nnm-club.avi
Формат                                   : AVI
Формат/Информация                        : Audio Video Interleave
Размер файла                             : 1,37 Гбайт
Продолжительность                        : 1 ч. 31 м.
Общий поток                              : 2136 Кбит/сек
Программа кодирования                    : VirtualDubMod 1.5.10.3 | | (build 2550/release)
Библиотека кодирования                   : VirtualDubMod build 2550/release
Видео
Идентификатор                            : 0
Формат                                   : MPEG-4 Visual
Профиль формата                          : Advanced [email protected]
Параметр BVOP формата                    : 2
Параметр QPel формата                    : Нет
Параметр GMC формата                     : Без точки перехода
Параметр матрицы формата                 : Default (MPEG)
Идентификатор кодека                     : XVID
Идентификатор кодека/Подсказка           : XviD
Продолжительность                        : 1 ч. 31 м.
Битрейт                                  : 1932 Кбит/сек
Ширина                                   : 720 пикселей
Высота                                   : 320 пикселей
Соотношение сторон                       : 2,25:1
Частота кадров                           : 29,970 (30000/1001) кадров/сек
Цветовое пространство                    : YUV
Субдискретизация насыщенности            : 4:2:0
Битовая глубина                          : 8 бит
Тип развёртки                            : Прогрессивная
Метод сжатия                             : С потерями
Бит/(Пиксели*Кадры)                      : 0.280
Размер потока                            : 1,24 Гбайт (90%)
Библиотека кодирования                   : XviD 1.2.1 (UTC 2008-12-04)
Аудио
Идентификатор                            : 1
Формат                                   : AC-3
Формат/Информация                        : Audio Coding 3
Расширение режима                        : CM (complete main)
Параметр Endianness формата              : Big
Идентификатор кодека                     : 2000
Продолжительность                        : 1 ч. 31 м.
Вид битрейта                             : Постоянный
Битрейт                                  : 192 Кбит/сек
Каналы                                   : 2 канала
Расположение каналов                     : Front: L R
Частота                                  : 48,0 КГц
Частота кадров                           : 31,250 кадров/сек (1536 spf)
Метод сжатия                             : С потерями
Размер потока                            : 126 Мбайт (9%)
Выравнивание                             : Разделение по промежуткам
Продолжительность промежутка             : 33  мс. (1,00 видеокадр)
Время предзагрузки промежутка            : 500  мс.
Скриншоты:
Яндекс.Метрика
Рейтинг@Mail.ru