[ Сегодня на трекере фрилич! Идет свободное скачивание без начисления Download ]

(Melodic Heavy Metal) Axel Rudi Pell - Game Of Sins (Limited Edition) - 2016 [FLAC, image +.cue, lossless]

 

Создавать темы 15-Янв-2016 19:40

--- Год издания: 2016
Страна: Germany
Жанр: Melodic Heavy Metal
Продолжительность: 01:04:22-Лейбл издания: SteamHammer/SPV
Тип альбома: Album
Страна-выпуска диска: Germany
Номер по каталогу: SPV 269290 CD-Формат: FLAC
Битрейт аудио: Lossless
Тип рипа: image +.cue
Наличие сканов в содержимом раздачи: да
-

Трэклист


01.Lenta Fortuna (Intro)(01:24)
02.Fire(05:34)
03.Sons In the Night(05:07)
04.Game of Sins(08:44)
05.Falling Star(05:15)
06.Lost In Love(06:07)
07.The King of Fools(04:58)
08.Till the World Says Goodbye(07:40)
09.Breaking the Rules(05:07)
10.Forever Free(08:30)
11.All Along the Watchtower (Bonus Track)(06:01)
-

Лог создания рипа

Exact Audio Copy V1.1 from 23. June 2015
EAC extraction logfile from 14. January 2016, 14:33
Axel Rudi Pell / Game of Sins
Used drive  : ATAPI   iHAS122   W   Adapter: 2  ID: 0
Read mode               : Secure
Utilize accurate stream : Yes
Defeat audio cache      : Yes
Make use of C2 pointers : No
Read offset correction                      : 48
Overread into Lead-In and Lead-Out          : No
Fill up missing offset samples with silence : Yes
Delete leading and trailing silent blocks   : No
Null samples used in CRC calculations       : Yes
Used interface                              : Installed external ASPI interface
Used output format              : User Defined Encoder
Selected bitrate                : 1024 kBit/s
Quality                         : High
Add ID3 tag                     : No
Command line compressor         : C:\Program Files\FLAC\flac.exe
Additional command line options : -V -8 -T "Date=%year%" -T "Genre=%genre%" -T"COMMENT=Ripped by  Ilijan" -8 -V %source%
TOC of the extracted CD
     Track |   Start  |  Length  | Start sector | End sector
    ---------------------------------------------------------
        1  |  0:00.00 |  1:23.35 |         0    |     6259
        2  |  1:23.35 |  5:33.74 |      6260    |    31308
        3  |  6:57.34 |  5:06.14 |     31309    |    54272
        4  | 12:03.48 |  8:43.04 |     54273    |    93501
        5  | 20:46.52 |  5:14.14 |     93502    |   117065
        6  | 26:00.66 |  6:06.62 |    117066    |   144577
        7  | 32:07.53 |  4:57.40 |    144578    |   166892
        8  | 37:05.18 |  7:39.39 |    166893    |   201356
        9  | 44:44.57 |  5:06.63 |    201357    |   224369
       10  | 49:51.45 |  8:29.11 |    224370    |   262555
       11  | 58:20.56 |  6:00.50 |    262556    |   289605
Range status and errors
Selected range
     Filename D:\ilко\Axel Rudi Pell - Game of Sins.wav
     Peak level 97.6 %
     Extraction speed 4.1 X
     Range quality 100.0 %
     Test CRC 18D18E82
     Copy CRC 18D18E82
     Copy OK
No errors occurred
AccurateRip summary
Track  1  not present in database
Track  2  not present in database
Track  3  not present in database
Track  4  not present in database
Track  5  not present in database
Track  6  not present in database
Track  7  not present in database
Track  8  not present in database
Track  9  not present in database
Track 10  not present in database
Track 11  not present in database
None of the tracks are present in the AccurateRip database
End of status report
---- CUETools DB Plugin V2.1.6
[CTDB TOCID: RQoRezWDdDyI_b.jv4Eqh5occ78-] disk not present in database
Submit result: RQoRezWDdDyI_b.jv4Eqh5occ78- has been uploaded

Индексная карта (non-compilant .cue)

REM GENRE "Melodic Heavy Metal"
REM DATE 2016
REM DISCID A10F150B
REM COMMENT "ExactAudioCopy v1.1"
PERFORMER "Axel Rudi Pell"
TITLE "Game of Sins"
FILE "Axel Rudi Pell - Game of Sins.flac" WAVE
  TRACK 01 AUDIO
    TITLE "Lenta Fortuna (Intro)"
    PERFORMER "Axel Rudi Pell"
    INDEX 01 00:00:00
  TRACK 02 AUDIO
    TITLE "Fire"
    PERFORMER "Axel Rudi Pell"
    INDEX 01 01:23:35
  TRACK 03 AUDIO
    TITLE "Sons In the Night"
    PERFORMER "Axel Rudi Pell"
    INDEX 00 06:56:35
    INDEX 01 06:57:34
  TRACK 04 AUDIO
    TITLE "Game of Sins"
    PERFORMER "Axel Rudi Pell"
    INDEX 00 12:02:47
    INDEX 01 12:03:48
  TRACK 05 AUDIO
    TITLE "Falling Star"
    PERFORMER "Axel Rudi Pell"
    INDEX 00 20:45:66
    INDEX 01 20:46:52
  TRACK 06 AUDIO
    TITLE "Lost In Love"
    PERFORMER "Axel Rudi Pell"
    INDEX 00 25:59:07
    INDEX 01 26:00:66
  TRACK 07 AUDIO
    TITLE "The King of Fools"
    PERFORMER "Axel Rudi Pell"
    INDEX 00 32:05:69
    INDEX 01 32:07:53
  TRACK 08 AUDIO
    TITLE "Till the World Says Goodbye"
    PERFORMER "Axel Rudi Pell"
    INDEX 00 37:04:40
    INDEX 01 37:05:18
  TRACK 09 AUDIO
    TITLE "Breaking the Rules"
    PERFORMER "Axel Rudi Pell"
    INDEX 00 44:44:04
    INDEX 01 44:44:57
  TRACK 10 AUDIO
    TITLE "Forever Free"
    PERFORMER "Axel Rudi Pell"
    INDEX 00 49:50:26
    INDEX 01 49:51:45
  TRACK 11 AUDIO
    TITLE "All Along the Watchtower (Bonus Track)"
    PERFORMER "Axel Rudi Pell"
    INDEX 00 58:18:29
    INDEX 01 58:20:56
--
Яндекс.Метрика
Рейтинг@Mail.ru