(Rock, Glam Rock) Sweet - Action The Ultimate Story (2CD) - 2015 [FLAC, tracks+.cue, lossless]

 

Создавать темы 13-Янв-2016 23:33

-Sweet - Action The Ultimate Story (2CD)-- Год издания: 2015
Страна: UK
Жанр: Rock, Glam Rock
Продолжительность: 02:42:40-Лейбл издания: Sony Music
Тип альбома: Compilation
Страна-выпуска диска: Germany
Номер по каталогу: 88875129652-Формат: FLAC
Битрейт аудио: Lossless
Тип рипа: tracks+.cue
Наличие сканов в содержимом раздачи: да
-

Трэклист

CD 1 || 01:21:47


01.Action(03:20)
02.Turn It Down(03:31)
03.Lost Angels(04:01)
04.Wig Wam Bam(03:02)
05.Little Willy(03:15)
06.Peppermint Twist(03:29)
07.The Ballroom Blitz(04:02)
08.New York Groove(03:55)
09.Natural(04:51)
10.Call Me(02:53)
11.Reach Out I'll Be There(05:10)
12.Defender(New 2015 Recording)(03:54)
13.The Six Teens(04:02)
14.Into The Night(04:25)
15.Yesterday's Rain(05:18)
16.Do As I Say(04:56)
17.Laura Lee(04:16)
18.Love Is Like Oxygen(03:46)
19.Fox On The Run(03:22)
20.Fox On The Run (Jay Frog & Amfree Remix)(06:28)

CD 2 || 01:20:54


01.Teenage Rampage(03:35)
02.Burn On The Flame(03:37)
03.Set Me Free(03:59)
04.Cockroach(04:53)
05.Hell Raiser(03:18)
06.Blockbuster(03:12)
07.Windy City(07:29)
08.Sweet F.A.(06:15)
09.Stairway To The Stars(03:05)
10.4th Of July(04:24)
11.Everything(04:30)
12.Sixties Man(03:52)
13.Do It All Over Again(04:26)
14.Lady Starlight(03:12)
15.Poppa Joe(03:07)
16.Co-Co(03:10)
17.Funny Funny(02:46)
18.Fever Of Love(04:00)
19.The Lies In Your Eyes(03:46)
20.Still Got The Rock(New 2015 Recording)(04:27)
-

Лог создания рипа

CD 1

Exact Audio Copy V1.1 from 23. June 2015
EAC extraction logfile from 3. October 2015, 22:06
Sweet / Action The Ultimate Story
Used drive  : PLEXTOR DVDR   PX-891SA   Adapter: 1  ID: 1
Read mode               : Secure
Utilize accurate stream : Yes
Defeat audio cache      : Yes
Make use of C2 pointers : No
Read offset correction                      : 6
Overread into Lead-In and Lead-Out          : No
Fill up missing offset samples with silence : Yes
Delete leading and trailing silent blocks   : No
Null samples used in CRC calculations       : Yes
Used interface                              : Native Win32 interface for Win NT & 2000
Gap handling                                : Appended to previous track
Used output format              : User Defined Encoder
Selected bitrate                : 1024 kBit/s
Quality                         : High
Add ID3 tag                     : No
Command line compressor         : C:\Program Files (x86)\Exact Audio Copy\Flac\flac.exe
Additional command line options : -0 -V -T "ARTIST=%artist%" -T "TITLE=%title%" -T "ALBUM=%albumtitle%" -T "DATE=%year%" -T "TRACKNUMBER=%tracknr%" -T "TOTALTRACKS=%numtracks%" -T "GENRE=%genre%" -T "COMMENT=Naftamusic Release!" %source%
TOC of the extracted CD
     Track |   Start  |  Length  | Start sector | End sector
    ---------------------------------------------------------
        1  |  0:00.00 |  3:19.15 |         0    |    14939
        2  |  3:19.15 |  3:30.34 |     14940    |    30723
        3  |  6:49.49 |  4:00.65 |     30724    |    48788
        4  | 10:50.39 |  3:01.33 |     48789    |    62396
        5  | 13:51.72 |  3:14.16 |     62397    |    76962
        6  | 17:06.13 |  3:28.50 |     76963    |    92612
        7  | 20:34.63 |  4:01.74 |     92613    |   110761
        8  | 24:36.62 |  3:54.19 |    110762    |   128330
        9  | 28:31.06 |  4:50.54 |    128331    |   150134
       10  | 33:21.60 |  2:52.34 |    150135    |   163068
       11  | 36:14.19 |  5:09.07 |    163069    |   186250
       12  | 41:23.26 |  3:53.65 |    186251    |   203790
       13  | 45:17.16 |  4:01.67 |    203791    |   221932
       14  | 49:19.08 |  4:24.68 |    221933    |   241800
       15  | 53:44.01 |  5:17.50 |    241801    |   265625
       16  | 59:01.51 |  4:55.55 |    265626    |   287805
       17  | 63:57.31 |  4:15.53 |    287806    |   306983
       18  | 68:13.09 |  3:45.24 |    306984    |   323882
       19  | 71:58.33 |  3:21.02 |    323883    |   338959
       20  | 75:19.35 |  6:27.29 |    338960    |   368013
Track  1
     Filename E:\Nafta Releases\Sweet - Action The Ultimate Story (2 CD 2015)[FLAC] - Naftamusic\CD 1\01 - Action.wav
     Pre-gap length  0:00:02.00
     Peak level 99.0 %
     Extraction speed 1.5 X
     Track quality 99.9 %
     Test CRC 654763E8
     Copy CRC 654763E8
     Track not present in AccurateRip database
     Copy OK
Track  2
     Filename E:\Nafta Releases\Sweet - Action The Ultimate Story (2 CD 2015)[FLAC] - Naftamusic\CD 1\02 - Turn It Down.wav
     Pre-gap length  0:00:00.39
     Peak level 99.0 %
     Extraction speed 1.6 X
     Track quality 99.9 %
     Test CRC 947CA9C1
     Copy CRC 947CA9C1
     Track not present in AccurateRip database
     Copy OK
Track  3
     Filename E:\Nafta Releases\Sweet - Action The Ultimate Story (2 CD 2015)[FLAC] - Naftamusic\CD 1\03 - Lost Angels.wav
     Pre-gap length  0:00:01.24
     Peak level 99.0 %
     Extraction speed 2.4 X
     Track quality 100.0 %
     Test CRC F1719907
     Copy CRC F1719907
     Track not present in AccurateRip database
     Copy OK
Track  4
     Filename E:\Nafta Releases\Sweet - Action The Ultimate Story (2 CD 2015)[FLAC] - Naftamusic\CD 1\04 - Wig Wam Bam.wav
     Pre-gap length  0:00:00.30
     Peak level 99.0 %
     Extraction speed 2.5 X
     Track quality 100.0 %
     Test CRC 95005C88
     Copy CRC 95005C88
     Track not present in AccurateRip database
     Copy OK
Track  5
     Filename E:\Nafta Releases\Sweet - Action The Ultimate Story (2 CD 2015)[FLAC] - Naftamusic\CD 1\05 - Little Willy.wav
     Pre-gap length  0:00:00.47
     Peak level 99.0 %
     Extraction speed 1.8 X
     Track quality 99.9 %
     Test CRC A3C08E69
     Copy CRC A3C08E69
     Track not present in AccurateRip database
     Copy OK
Track  6
     Filename E:\Nafta Releases\Sweet - Action The Ultimate Story (2 CD 2015)[FLAC] - Naftamusic\CD 1\06 - Peppermint Twist.wav
     Pre-gap length  0:00:00.63
     Peak level 99.0 %
     Extraction speed 2.8 X
     Track quality 100.0 %
     Test CRC 25181B35
     Copy CRC 25181B35
     Track not present in AccurateRip database
     Copy OK
Track  7
     Filename E:\Nafta Releases\Sweet - Action The Ultimate Story (2 CD 2015)[FLAC] - Naftamusic\CD 1\07 - The Ballroom Blitz.wav
     Pre-gap length  0:00:00.46
     Peak level 99.0 %
     Extraction speed 2.2 X
     Track quality 99.9 %
     Test CRC CEA87129
     Copy CRC CEA87129
     Track not present in AccurateRip database
     Copy OK
Track  8
     Filename E:\Nafta Releases\Sweet - Action The Ultimate Story (2 CD 2015)[FLAC] - Naftamusic\CD 1\08 - New York Groove.wav
     Pre-gap length  0:00:00.58
     Peak level 99.9 %
     Extraction speed 3.1 X
     Track quality 100.0 %
     Test CRC E128C33D
     Copy CRC E128C33D
     Track not present in AccurateRip database
     Copy OK
Track  9
     Filename E:\Nafta Releases\Sweet - Action The Ultimate Story (2 CD 2015)[FLAC] - Naftamusic\CD 1\09 - Natural.wav
     Pre-gap length  0:00:01.65
     Peak level 99.0 %
     Extraction speed 3.4 X
     Track quality 100.0 %
     Test CRC DA9524F2
     Copy CRC DA9524F2
     Track not present in AccurateRip database
     Copy OK
Track 10
     Filename E:\Nafta Releases\Sweet - Action The Ultimate Story (2 CD 2015)[FLAC] - Naftamusic\CD 1\10 - Call Me.wav
     Pre-gap length  0:00:00.55
     Peak level 99.0 %
     Extraction speed 3.3 X
     Track quality 100.0 %
     Test CRC 1154CEB1
     Copy CRC 1154CEB1
     Track not present in AccurateRip database
     Copy OK
Track 11
     Filename E:\Nafta Releases\Sweet - Action The Ultimate Story (2 CD 2015)[FLAC] - Naftamusic\CD 1\11 - Reach Out I'll Be There.wav
     Pre-gap length  0:00:00.65
     Peak level 99.5 %
     Extraction speed 2.8 X
     Track quality 99.9 %
     Test CRC 10E4AA8C
     Copy CRC 10E4AA8C
     Track not present in AccurateRip database
     Copy OK
Track 12
     Filename E:\Nafta Releases\Sweet - Action The Ultimate Story (2 CD 2015)[FLAC] - Naftamusic\CD 1\12 - Defender.wav
     Pre-gap length  0:00:00.42
     Peak level 99.0 %
     Extraction speed 3.6 X
     Track quality 100.0 %
     Test CRC 6D477D95
     Copy CRC 6D477D95
     Track not present in AccurateRip database
     Copy OK
Track 13
     Filename E:\Nafta Releases\Sweet - Action The Ultimate Story (2 CD 2015)[FLAC] - Naftamusic\CD 1\13 - The Six Teens.wav
     Pre-gap length  0:00:00.65
     Peak level 99.0 %
     Extraction speed 3.8 X
     Track quality 100.0 %
     Test CRC DBB7D630
     Copy CRC DBB7D630
     Track not present in AccurateRip database
     Copy OK
Track 14
     Filename E:\Nafta Releases\Sweet - Action The Ultimate Story (2 CD 2015)[FLAC] - Naftamusic\CD 1\14 - Into The Night.wav
     Pre-gap length  0:00:00.35
     Peak level 99.0 %
     Extraction speed 2.9 X
     Track quality 99.9 %
     Test CRC FC46054C
     Copy CRC FC46054C
     Track not present in AccurateRip database
     Copy OK
Track 15
     Filename E:\Nafta Releases\Sweet - Action The Ultimate Story (2 CD 2015)[FLAC] - Naftamusic\CD 1\15 - Yesterday's Rain.wav
     Pre-gap length  0:00:01.21
     Peak level 99.0 %
     Extraction speed 4.2 X
     Track quality 100.0 %
     Test CRC 3C91CEDE
     Copy CRC 3C91CEDE
     Track not present in AccurateRip database
     Copy OK
Track 16
     Filename E:\Nafta Releases\Sweet - Action The Ultimate Story (2 CD 2015)[FLAC] - Naftamusic\CD 1\16 - Do As I Say.wav
     Pre-gap length  0:00:01.05
     Peak level 99.3 %
     Extraction speed 4.2 X
     Track quality 100.0 %
     Test CRC 5A8F8B1C
     Copy CRC 5A8F8B1C
     Track not present in AccurateRip database
     Copy OK
Track 17
     Filename E:\Nafta Releases\Sweet - Action The Ultimate Story (2 CD 2015)[FLAC] - Naftamusic\CD 1\17 - Laura Lee.wav
     Pre-gap length  0:00:01.00
     Peak level 99.0 %
     Extraction speed 4.3 X
     Track quality 100.0 %
     Test CRC BDAB27B0
     Copy CRC BDAB27B0
     Track not present in AccurateRip database
     Copy OK
Track 18
     Filename E:\Nafta Releases\Sweet - Action The Ultimate Story (2 CD 2015)[FLAC] - Naftamusic\CD 1\18 - Love Is Like Oxygen.wav
     Pre-gap length  0:00:00.46
     Peak level 99.0 %
     Extraction speed 4.3 X
     Track quality 100.0 %
     Test CRC A46BC5AF
     Copy CRC A46BC5AF
     Track not present in AccurateRip database
     Copy OK
Track 19
     Filename E:\Nafta Releases\Sweet - Action The Ultimate Story (2 CD 2015)[FLAC] - Naftamusic\CD 1\19 - Fox On The Run.wav
     Pre-gap length  0:00:00.28
     Peak level 99.0 %
     Extraction speed 4.3 X
     Track quality 100.0 %
     Test CRC 08C57DBF
     Copy CRC 08C57DBF
     Track not present in AccurateRip database
     Copy OK
Track 20
     Filename E:\Nafta Releases\Sweet - Action The Ultimate Story (2 CD 2015)[FLAC] - Naftamusic\CD 1\20 - Fox On The Run (Jay Frog & Amfree Remix).wav
     Pre-gap length  0:00:00.32
     Peak level 96.9 %
     Extraction speed 4.2 X
     Track quality 100.0 %
     Test CRC 5B16B4F8
     Copy CRC 5B16B4F8
     Track not present in AccurateRip database
     Copy OK
None of the tracks are present in the AccurateRip database
No errors occurred
End of status report

CD 2

Exact Audio Copy V1.1 from 23. June 2015
EAC extraction logfile from 3. October 2015, 23:46
Sweet / Action The Ultimate Story
Used drive  : PLEXTOR DVDR   PX-891SA   Adapter: 1  ID: 1
Read mode               : Secure
Utilize accurate stream : Yes
Defeat audio cache      : Yes
Make use of C2 pointers : No
Read offset correction                      : 6
Overread into Lead-In and Lead-Out          : No
Fill up missing offset samples with silence : Yes
Delete leading and trailing silent blocks   : No
Null samples used in CRC calculations       : Yes
Used interface                              : Native Win32 interface for Win NT & 2000
Gap handling                                : Appended to previous track
Used output format              : User Defined Encoder
Selected bitrate                : 1024 kBit/s
Quality                         : High
Add ID3 tag                     : No
Command line compressor         : C:\Program Files (x86)\Exact Audio Copy\Flac\flac.exe
Additional command line options : -0 -V -T "ARTIST=%artist%" -T "TITLE=%title%" -T "ALBUM=%albumtitle%" -T "DATE=%year%" -T "TRACKNUMBER=%tracknr%" -T "TOTALTRACKS=%numtracks%" -T "GENRE=%genre%" -T "COMMENT=Naftamusic Release!" %source%
TOC of the extracted CD
     Track |   Start  |  Length  | Start sector | End sector
    ---------------------------------------------------------
        1  |  0:00.00 |  3:34.05 |         0    |    16054
        2  |  3:34.05 |  3:36.62 |     16055    |    32316
        3  |  7:10.67 |  3:58.52 |     32317    |    50218
        4  | 11:09.44 |  4:52.22 |     50219    |    72140
        5  | 16:01.66 |  3:17.26 |     72141    |    86941
        6  | 19:19.17 |  3:11.52 |     86942    |   101318
        7  | 22:30.69 |  7:28.40 |    101319    |   134958
        8  | 29:59.34 |  6:14.37 |    134959    |   163045
        9  | 36:13.71 |  3:04.11 |    163046    |   176856
       10  | 39:18.07 |  4:23.71 |    176857    |   196652
       11  | 43:42.03 |  4:29.41 |    196653    |   216868
       12  | 48:11.44 |  3:51.32 |    216869    |   234225
       13  | 52:03.01 |  4:25.50 |    234226    |   254150
       14  | 56:28.51 |  3:11.15 |    254151    |   268490
       15  | 59:39.66 |  3:06.29 |    268491    |   282469
       16  | 62:46.20 |  3:09.61 |    282470    |   296705
       17  | 65:56.06 |  2:45.50 |    296706    |   309130
       18  | 68:41.56 |  3:59.39 |    309131    |   327094
       19  | 72:41.20 |  3:45.23 |    327095    |   343992
       20  | 76:26.43 |  4:26.33 |    343993    |   363975
Track  1
     Filename E:\Nafta Releases\Sweet - Action The Ultimate Story (2 CD 2015)[FLAC] - Naftamusic\CD 2\01 - Teenage Rampage.wav
     Pre-gap length  0:00:02.00
     Peak level 99.0 %
     Extraction speed 2.1 X
     Track quality 100.0 %
     Test CRC 6235FF86
     Copy CRC 6235FF86
     Track not present in AccurateRip database
     Copy OK
Track  2
     Filename E:\Nafta Releases\Sweet - Action The Ultimate Story (2 CD 2015)[FLAC] - Naftamusic\CD 2\02 - Burn On The Flame.wav
     Pre-gap length  0:00:00.41
     Peak level 99.0 %
     Extraction speed 2.2 X
     Track quality 100.0 %
     Test CRC 90770BEB
     Copy CRC 90770BEB
     Track not present in AccurateRip database
     Copy OK
Track  3
     Filename E:\Nafta Releases\Sweet - Action The Ultimate Story (2 CD 2015)[FLAC] - Naftamusic\CD 2\03 - Set Me Free.wav
     Pre-gap length  0:00:00.47
     Peak level 99.0 %
     Extraction speed 1.8 X
     Track quality 99.9 %
     Test CRC 7A3A8486
     Copy CRC 7A3A8486
     Track not present in AccurateRip database
     Copy OK
Track  4
     Filename E:\Nafta Releases\Sweet - Action The Ultimate Story (2 CD 2015)[FLAC] - Naftamusic\CD 2\04 - Cockroach.wav
     Pre-gap length  0:00:01.31
     Peak level 99.0 %
     Extraction speed 2.7 X
     Track quality 100.0 %
     Test CRC DC987A83
     Copy CRC DC987A83
     Track not present in AccurateRip database
     Copy OK
Track  5
     Filename E:\Nafta Releases\Sweet - Action The Ultimate Story (2 CD 2015)[FLAC] - Naftamusic\CD 2\05 - Hell Raiser.wav
     Pre-gap length  0:00:00.16
     Peak level 99.0 %
     Extraction speed 2.7 X
     Track quality 100.0 %
     Test CRC 2CEA8965
     Copy CRC 2CEA8965
     Track not present in AccurateRip database
     Copy OK
Track  6
     Filename E:\Nafta Releases\Sweet - Action The Ultimate Story (2 CD 2015)[FLAC] - Naftamusic\CD 2\06 - Blockbuster.wav
     Pre-gap length  0:00:00.36
     Peak level 99.0 %
     Extraction speed 2.8 X
     Track quality 100.0 %
     Test CRC 2B5A7C07
     Copy CRC 2B5A7C07
     Track not present in AccurateRip database
     Copy OK
Track  7
     Filename E:\Nafta Releases\Sweet - Action The Ultimate Story (2 CD 2015)[FLAC] - Naftamusic\CD 2\07 - Windy City.wav
     Pre-gap length  0:00:00.61
     Peak level 99.0 %
     Extraction speed 2.7 X
     Track quality 99.9 %
     Test CRC EEB3D630
     Copy CRC EEB3D630
     Track not present in AccurateRip database
     Copy OK
Track  8
     Filename E:\Nafta Releases\Sweet - Action The Ultimate Story (2 CD 2015)[FLAC] - Naftamusic\CD 2\08 - Sweet F.A..wav
     Pre-gap length  0:00:01.28
     Peak level 99.0 %
     Extraction speed 2.8 X
     Track quality 99.9 %
     Test CRC 8C154BB9
     Copy CRC 8C154BB9
     Track not present in AccurateRip database
     Copy OK
Track  9
     Filename E:\Nafta Releases\Sweet - Action The Ultimate Story (2 CD 2015)[FLAC] - Naftamusic\CD 2\09 - Stairway To The Stars.wav
     Pre-gap length  0:00:01.31
     Peak level 99.0 %
     Extraction speed 3.3 X
     Track quality 100.0 %
     Test CRC D4DAC501
     Copy CRC D4DAC501
     Track not present in AccurateRip database
     Copy OK
Track 10
     Filename E:\Nafta Releases\Sweet - Action The Ultimate Story (2 CD 2015)[FLAC] - Naftamusic\CD 2\10 - 4th Of July.wav
     Pre-gap length  0:00:42.51
     Peak level 99.0 %
     Extraction speed 2.7 X
     Track quality 99.9 %
     Test CRC 15979A72
     Copy CRC 15979A72
     Track not present in AccurateRip database
     Copy OK
Track 11
     Filename E:\Nafta Releases\Sweet - Action The Ultimate Story (2 CD 2015)[FLAC] - Naftamusic\CD 2\11 - Everything.wav
     Pre-gap length  0:00:00.31
     Peak level 99.0 %
     Extraction speed 2.8 X
     Track quality 99.9 %
     Test CRC 665057C6
     Copy CRC 665057C6
     Track not present in AccurateRip database
     Copy OK
Track 12
     Filename E:\Nafta Releases\Sweet - Action The Ultimate Story (2 CD 2015)[FLAC] - Naftamusic\CD 2\12 - Sixties Man.wav
     Peak level 99.0 %
     Extraction speed 2.8 X
     Track quality 99.9 %
     Test CRC D7D275C4
     Copy CRC D7D275C4
     Track not present in AccurateRip database
     Copy OK
Track 13
     Filename E:\Nafta Releases\Sweet - Action The Ultimate Story (2 CD 2015)[FLAC] - Naftamusic\CD 2\13 - Do It All Over Again.wav
     Pre-gap length  0:00:00.65
     Peak level 95.9 %
     Extraction speed 3.9 X
     Track quality 100.0 %
     Test CRC 8CBFBA68
     Copy CRC 8CBFBA68
     Track not present in AccurateRip database
     Copy OK
Track 14
     Filename E:\Nafta Releases\Sweet - Action The Ultimate Story (2 CD 2015)[FLAC] - Naftamusic\CD 2\14 - Lady Starlight.wav
     Pre-gap length  0:00:00.71
     Peak level 99.0 %
     Extraction speed 2.7 X
     Track quality 99.9 %
     Test CRC 029BF75F
     Copy CRC 029BF75F
     Track not present in AccurateRip database
     Copy OK
Track 15
     Filename E:\Nafta Releases\Sweet - Action The Ultimate Story (2 CD 2015)[FLAC] - Naftamusic\CD 2\15 - Poppa Joe.wav
     Pre-gap length  0:00:01.46
     Peak level 99.0 %
     Extraction speed 3.9 X
     Track quality 100.0 %
     Test CRC 6C631489
     Copy CRC 6C631489
     Track not present in AccurateRip database
     Copy OK
Track 16
     Filename E:\Nafta Releases\Sweet - Action The Ultimate Story (2 CD 2015)[FLAC] - Naftamusic\CD 2\16 - Co-Co.wav
     Pre-gap length  0:00:01.03
     Peak level 99.0 %
     Extraction speed 4.0 X
     Track quality 100.0 %
     Test CRC EB066AC9
     Copy CRC EB066AC9
     Track not present in AccurateRip database
     Copy OK
Track 17
     Filename E:\Nafta Releases\Sweet - Action The Ultimate Story (2 CD 2015)[FLAC] - Naftamusic\CD 2\17 - Funny Funny.wav
     Pre-gap length  0:00:00.65
     Peak level 99.0 %
     Extraction speed 2.7 X
     Track quality 99.9 %
     Test CRC 497742B4
     Copy CRC 497742B4
     Track not present in AccurateRip database
     Copy OK
Track 18
     Filename E:\Nafta Releases\Sweet - Action The Ultimate Story (2 CD 2015)[FLAC] - Naftamusic\CD 2\18 - Fever Of Love.wav
     Pre-gap length  0:00:00.52
     Peak level 99.0 %
     Extraction speed 4.3 X
     Track quality 100.0 %
     Test CRC 717D9DF5
     Copy CRC 717D9DF5
     Track not present in AccurateRip database
     Copy OK
Track 19
     Filename E:\Nafta Releases\Sweet - Action The Ultimate Story (2 CD 2015)[FLAC] - Naftamusic\CD 2\19 - The Lies In Your Eyes.wav
     Pre-gap length  0:00:00.41
     Peak level 99.0 %
     Extraction speed 4.3 X
     Track quality 100.0 %
     Test CRC 92D24148
     Copy CRC 92D24148
     Track not present in AccurateRip database
     Copy OK
Track 20
     Filename E:\Nafta Releases\Sweet - Action The Ultimate Story (2 CD 2015)[FLAC] - Naftamusic\CD 2\20 - Still Got The Rock.wav
     Peak level 99.0 %
     Extraction speed 4.4 X
     Track quality 100.0 %
     Test CRC 82A6DA5C
     Copy CRC 82A6DA5C
     Track not present in AccurateRip database
     Copy OK
None of the tracks are present in the AccurateRip database
No errors occurred
End of status report

Индексная карта (non-compilant .cue)

CD 1

REM DATE 2015
REM DISCID 05132A14
REM COMMENT "ExactAudioCopy v1.1"
PERFORMER "Sweet"
TITLE "Action The Ultimate Story"
FILE "01 - Action.wav" WAVE
  TRACK 01 AUDIO
    TITLE "Action"
    PERFORMER "Sweet"
    INDEX 01 00:00:00
  TRACK 02 AUDIO
    TITLE "Turn It Down"
    PERFORMER "Sweet"
    INDEX 00 03:18:51
FILE "02 - Turn It Down.wav" WAVE
    INDEX 01 00:00:00
  TRACK 03 AUDIO
    TITLE "Lost Angels"
    PERFORMER "Sweet"
    INDEX 00 03:29:10
FILE "03 - Lost Angels.wav" WAVE
    INDEX 01 00:00:00
  TRACK 04 AUDIO
    TITLE "Wig Wam Bam"
    PERFORMER "Sweet"
    INDEX 00 04:00:35
FILE "04 - Wig Wam Bam.wav" WAVE
    INDEX 01 00:00:00
  TRACK 05 AUDIO
    TITLE "Little Willy"
    PERFORMER "Sweet"
    INDEX 00 03:00:61
FILE "05 - Little Willy.wav" WAVE
    INDEX 01 00:00:00
  TRACK 06 AUDIO
    TITLE "Peppermint Twist"
    PERFORMER "Sweet"
    INDEX 00 03:13:28
FILE "06 - Peppermint Twist.wav" WAVE
    INDEX 01 00:00:00
  TRACK 07 AUDIO
    TITLE "The Ballroom Blitz"
    PERFORMER "Sweet"
    INDEX 00 03:28:04
FILE "07 - The Ballroom Blitz.wav" WAVE
    INDEX 01 00:00:00
  TRACK 08 AUDIO
    TITLE "New York Groove"
    PERFORMER "Sweet"
    INDEX 00 04:01:16
FILE "08 - New York Groove.wav" WAVE
    INDEX 01 00:00:00
  TRACK 09 AUDIO
    TITLE "Natural"
    PERFORMER "Sweet"
    INDEX 00 03:52:29
FILE "09 - Natural.wav" WAVE
    INDEX 01 00:00:00
  TRACK 10 AUDIO
    TITLE "Call Me"
    PERFORMER "Sweet"
    INDEX 00 04:49:74
FILE "10 - Call Me.wav" WAVE
    INDEX 01 00:00:00
  TRACK 11 AUDIO
    TITLE "Reach Out I'll Be There"
    PERFORMER "Sweet"
    INDEX 00 02:51:44
FILE "11 - Reach Out I'll Be There.wav" WAVE
    INDEX 01 00:00:00
  TRACK 12 AUDIO
    TITLE "Defender"
    PERFORMER "Sweet"
    INDEX 00 05:08:40
FILE "12 - Defender.wav" WAVE
    INDEX 01 00:00:00
  TRACK 13 AUDIO
    TITLE "The Six Teens"
    PERFORMER "Sweet"
    INDEX 00 03:53:00
FILE "13 - The Six Teens.wav" WAVE
    INDEX 01 00:00:00
  TRACK 14 AUDIO
    TITLE "Into The Night"
    PERFORMER "Sweet"
    INDEX 00 04:01:32
FILE "14 - Into The Night.wav" WAVE
    INDEX 01 00:00:00
  TRACK 15 AUDIO
    TITLE "Yesterday's Rain"
    PERFORMER "Sweet"
    INDEX 00 04:23:47
FILE "15 - Yesterday's Rain.wav" WAVE
    INDEX 01 00:00:00
  TRACK 16 AUDIO
    TITLE "Do As I Say"
    PERFORMER "Sweet"
    INDEX 00 05:16:45
FILE "16 - Do As I Say.wav" WAVE
    INDEX 01 00:00:00
  TRACK 17 AUDIO
    TITLE "Laura Lee"
    PERFORMER "Sweet"
    INDEX 00 04:54:55
FILE "17 - Laura Lee.wav" WAVE
    INDEX 01 00:00:00
  TRACK 18 AUDIO
    TITLE "Love Is Like Oxygen"
    PERFORMER "Sweet"
    INDEX 00 04:15:07
FILE "18 - Love Is Like Oxygen.wav" WAVE
    INDEX 01 00:00:00
  TRACK 19 AUDIO
    TITLE "Fox On The Run"
    PERFORMER "Sweet"
    INDEX 00 03:44:71
FILE "19 - Fox On The Run.wav" WAVE
    INDEX 01 00:00:00
  TRACK 20 AUDIO
    TITLE "Fox On The Run (Jay Frog & Amfree Remix)"
    PERFORMER "Sweet"
    INDEX 00 03:20:45
FILE "20 - Fox On The Run (Jay Frog & Amfree Remix).wav" WAVE
    INDEX 01 00:00:00

CD 2

REM GENRE Rock
REM DATE 2015
REM DISCID 2012F514
REM COMMENT "ExactAudioCopy v1.1"
PERFORMER "Sweet"
TITLE "Action The Ultimate Story"
FILE "01 - Teenage Rampage.wav" WAVE
  TRACK 01 AUDIO
    TITLE "Teenage Rampage"
    PERFORMER "Sweet"
    INDEX 01 00:00:00
  TRACK 02 AUDIO
    TITLE "Burn On The Flame"
    PERFORMER "Sweet"
    INDEX 00 03:33:39
FILE "02 - Burn On The Flame.wav" WAVE
    INDEX 01 00:00:00
  TRACK 03 AUDIO
    TITLE "Set Me Free"
    PERFORMER "Sweet"
    INDEX 00 03:36:15
FILE "03 - Set Me Free.wav" WAVE
    INDEX 01 00:00:00
  TRACK 04 AUDIO
    TITLE "Cockroach"
    PERFORMER "Sweet"
    INDEX 00 03:57:21
FILE "04 - Cockroach.wav" WAVE
    INDEX 01 00:00:00
  TRACK 05 AUDIO
    TITLE "Hell Raiser"
    PERFORMER "Sweet"
    INDEX 00 04:52:06
FILE "05 - Hell Raiser.wav" WAVE
    INDEX 01 00:00:00
  TRACK 06 AUDIO
    TITLE "Blockbuster"
    PERFORMER "Sweet"
    INDEX 00 03:16:65
FILE "06 - Blockbuster.wav" WAVE
    INDEX 01 00:00:00
  TRACK 07 AUDIO
    TITLE "Windy City"
    PERFORMER "Sweet"
    INDEX 00 03:10:66
FILE "07 - Windy City.wav" WAVE
    INDEX 01 00:00:00
  TRACK 08 AUDIO
    TITLE "Sweet F.A."
    PERFORMER "Sweet"
    INDEX 00 07:27:12
FILE "08 - Sweet F.A..wav" WAVE
    INDEX 01 00:00:00
  TRACK 09 AUDIO
    TITLE "Stairway To The Stars"
    PERFORMER "Sweet"
    INDEX 00 06:13:06
FILE "09 - Stairway To The Stars.wav" WAVE
    INDEX 01 00:00:00
  TRACK 10 AUDIO
    TITLE "4th Of July"
    PERFORMER "Sweet"
    INDEX 00 02:21:35
FILE "10 - 4th Of July.wav" WAVE
    INDEX 01 00:00:00
  TRACK 11 AUDIO
    TITLE "Everything"
    PERFORMER "Sweet"
    INDEX 00 04:23:40
FILE "11 - Everything.wav" WAVE
    INDEX 01 00:00:00
FILE "12 - Sixties Man.wav" WAVE
  TRACK 12 AUDIO
    TITLE "Sixties Man"
    PERFORMER "Sweet"
    INDEX 01 00:00:00
  TRACK 13 AUDIO
    TITLE "Do It All Over Again"
    PERFORMER "Sweet"
    INDEX 00 03:50:42
FILE "13 - Do It All Over Again.wav" WAVE
    INDEX 01 00:00:00
  TRACK 14 AUDIO
    TITLE "Lady Starlight"
    PERFORMER "Sweet"
    INDEX 00 04:24:54
FILE "14 - Lady Starlight.wav" WAVE
    INDEX 01 00:00:00
  TRACK 15 AUDIO
    TITLE "Poppa Joe"
    PERFORMER "Sweet"
    INDEX 00 03:09:44
FILE "15 - Poppa Joe.wav" WAVE
    INDEX 01 00:00:00
  TRACK 16 AUDIO
    TITLE "Co-Co"
    PERFORMER "Sweet"
    INDEX 00 03:05:26
FILE "16 - Co-Co.wav" WAVE
    INDEX 01 00:00:00
  TRACK 17 AUDIO
    TITLE "Funny Funny"
    PERFORMER "Sweet"
    INDEX 00 03:08:71
FILE "17 - Funny Funny.wav" WAVE
    INDEX 01 00:00:00
  TRACK 18 AUDIO
    TITLE "Fever Of Love"
    PERFORMER "Sweet"
    INDEX 00 02:44:73
FILE "18 - Fever Of Love.wav" WAVE
    INDEX 01 00:00:00
  TRACK 19 AUDIO
    TITLE "The Lies In Your Eyes"
    PERFORMER "Sweet"
    INDEX 00 03:58:73
FILE "19 - The Lies In Your Eyes.wav" WAVE
    INDEX 01 00:00:00
FILE "20 - Still Got The Rock.wav" WAVE
  TRACK 20 AUDIO
    TITLE "Still Got The Rock"
    PERFORMER "Sweet"
    INDEX 01 00:00:00
--
Яндекс.Метрика
Рейтинг@Mail.ru