[ Сегодня на трекере фрилич! Идет свободное скачивание без начисления Download ]

Легенда / Legend (2015) WEBRip [H.264/1080p-LQ] [Line]

 

Создавать темы 13-Янв-2016 17:47

Легенда / Legend (2015) WEBRip [H.264/1080p-LQ]- Производство: Великобритания, Франция, Anton Capital Entertainment (ACE), Cross Creek Pictures, StudioCanal
Жанр: Криминал, Триллер, Драма
Режиссер: Брайан Хелгеленд
Продюсер: Тим Беван, Крис Кларк, Квентин Кертис
Актеры: Том Харди, Эмили Браунинг, Тэрон Эджертон, Пол Беттани, Анейрин Барнард, Колин Морган, Дэвид Тьюлис, Кристофер Экклстон, Пол Андерсон, Чазз Пальминтери
Описание:
Фильм расскажет историю близнецов Реджи и Ронни Крэй, культовых фигур преступного мира Великобритании 1960-х. Братья возглавляли самую влиятельную бандитскую группировку Ист-Энда. В их послужном списке: вооруженные грабежи, рэкет, поджоги, покушения, убийства и собственный ночной клуб, куда доезжали даже голливудские знаменитости. Среди их жертв — криминальные авторитеты Джек МакВитти и Джордж Корнелл.
[thumb]http://www.kinopoisk.ru/film/839954/[/thumb]
Рейтинг MPAA: R
Возраст: 18+
Дата мировой премьеры: 9 сентября 2015
Дата премьеры в России: 1 октября 2015, «Парадиз»
Продолжительность: 02:05:34
Качество видео: WEBRip
Перевод: Дублированный (Чистый звук)
Вид субтитров: Отсутствуют
Видео: AVC/H.264, 1920x804 (2.40:1), 5086 kb/s
Аудио »1: 48 kHz, AC3 Dolby Digital, 2/0 (L,R) ch, ~384 kbps (Русский)
Аудио »2: 48 kHz, AC3 Dolby Digital, 2/0 (L,R) ch, ~192 kbps (Английский)
Сэмпл: Скачать

MI

Общее
Уникальный идентификатор : 232815023046434578587383154718432679322 (0xAF268ADD4579028FA597550F8FBDD59A)
Полное имя : D:\Релизы\Легенда.2015.WEBRip.[1080p].mkv
Формат : Matroska
Версия формата : Version 2
Размер файла : 5,07 Гбайт
Продолжительность : 2 ч. 5 м.
Общий поток : 5777 Кбит/сек
Название фильма : Легенда.2015.WEBRip.[1080p].nnm-club
Дата кодирования : UTC 2016-01-12 18:26:52
Программа кодирования : mkvmerge v8.3.0 ('Over the Horizon') 64bit
Библиотека кодирования : libebml v1.3.1 + libmatroska v1.4.2
Видео
Идентификатор : 1
Формат : AVC
Формат/Информация : Advanced Video Codec
Профиль формата : [email protected]
Параметр CABAC формата : Да
Параметр ReFrames формата : 4 кадра
Идентификатор кодека : V_MPEG4/ISO/AVC
Продолжительность : 2 ч. 5 м.
Битрейт : 5086 Кбит/сек
Ширина : 1920 пикселей
Высота : 804 пикселя
Соотношение сторон : 2,40:1
Режим частоты кадров : Постоянный
Частота кадров : 24,000 кадра/сек
Цветовое пространство : YUV
Субдискретизация насыщенности : 4:2:0
Битовая глубина : 8 бит
Тип развёртки : Прогрессивная
Бит/(Пиксели*Кадры) : 0.137
Размер потока : 4,46 Гбайт (88%)
Заголовок : Легенда.2015.WEBRip.[1080p].nnm-club
Язык : English
Default : Да
Forced : Нет
Аудио #1
Идентификатор : 2
Формат : AC-3
Формат/Информация : Audio Coding 3
Расширение режима : CM (complete main)
Параметр Endianness формата : Big
Идентификатор кодека : A_AC3
Продолжительность : 2 ч. 5 м.
Вид битрейта : Постоянный
Битрейт : 384 Кбит/сек
Каналы : 2 канала
Расположение каналов : Front: L R
Частота : 48,0 КГц
Метод сжатия : С потерями
Размер потока : 345 Мбайт (7%)
Заголовок : Line
Язык : Russian
Default : Да
Forced : Нет
Аудио #2
Идентификатор : 3
Формат : AC-3
Формат/Информация : Audio Coding 3
Расширение режима : CM (complete main)
Параметр Endianness формата : Big
Идентификатор кодека : A_AC3
Продолжительность : 2 ч. 5 м.
Вид битрейта : Постоянный
Битрейт : 192 Кбит/сек
Каналы : 2 канала
Расположение каналов : Front: L R
Частота : 48,0 КГц
Метод сжатия : С потерями
Размер потока : 172 Мбайт (3%)
Заголовок : Original
Язык : English
Default : Нет
Forced : Нет
Скриншоты:Время раздачи: 24/7, до 5 скачавших.
Яндекс.Метрика
Рейтинг@Mail.ru