[ Сегодня на трекере фрилич! Идет свободное скачивание без начисления Download ]

(Heavy Metal) Ария - Котёл Истории - Live MMXV (RU Universal Music) - 2015 [FLAC, image +.cue, lossless]

 

Создавать темы 12-Янв-2016 21:54

-Ария - Котёл Истории - Live MMXV-- Год издания: 2015
Страна: Russia
Жанр: Heavy Metal
Продолжительность: 01:05:11-Лейбл издания: «Юниверсал Мьюзик»
Страна-выпуска диска: Russia
Формат: FLAC
Битрейт аудио: lossless
Тип рипа: image +.cue
Наличие сканов в содержимом раздачи: да
-

Трэклист


01.Интро(01:54)
02.Горящая Стрела(04:27)
03.Ангелы Неба(04:42)
04.Не Сходи С Ума(05:41)
05.Точка Невозврата(05:17)
06.Атака Мертвецов(06:55)
07.Игра С Огнём(09:05)
08.Паранойя(04:53)
09.Король Дороги(04:09)
10.Там Высоко(05:22)
11.Последний Закат(04:58)
12.Небо Тебя Найдёт(07:54)
-

Лог создания рипа

Exact Audio Copy V1.1 from 23. June 2015
Отчёт EAC об извлечении, выполненном 24. ноября 2015, 22:59
Ария / Котёл Истории: Live MMXV
Дисковод: PIONEER BD-RW   BDR-205   Adapter: 1  ID: 0
Режим чтения                 : Достоверность
Использование точного потока : Да
Отключение кэша аудио        : Да
Использование указателей C2  : Нет
Коррекция смещения при чтении                     : 667
Способность читать области Lead-in и Lead-out     : Нет
Заполнение пропущенных сэмплов тишиной            : Да
Удаление блоков с тишиной в начале и конце        : Нет
При вычислениях CRC использовались нулевые сэмплы : Да
Интерфейс                                         : Встроенный Win32-интерфейс для Win NT/2000
Выходной формат          : Пользовательский кодировщик
Выбранный битрейт        : 128 kBit/s
Качество                 : Высокий
Добавление ID3-тега      : Нет
Утилита сжатия           : D:\Program Files (x86)\Exact Audio Copy\Flac\flac.exe
Дополнительные параметры : -V -8 -T "Date=%year%" -T "Genre=%genre%" %source%
TOC извлечённого CD
     Трек |   Старт  | Длительность | Начальный сектор | Конечный сектор
    ---------------------------------------------------------------------
       1  |  0:00.00 |    1:53.46   |           0      |       8520
       2  |  1:53.46 |    4:26.17   |        8521      |      28487
       3  |  6:19.63 |    4:41.01   |       28488      |      49563
       4  | 11:00.64 |    5:40.60   |       49564      |      75123
       5  | 16:41.49 |    5:16.07   |       75124      |      98830
       6  | 21:57.56 |    6:54.11   |       98831      |     129891
       7  | 28:51.67 |    9:04.67   |      129892      |     170758
       8  | 37:56.59 |    4:52.69   |      170759      |     192727
       9  | 42:49.53 |    4:08.67   |      192728      |     211394
      10  | 46:58.45 |    5:21.19   |      211395      |     235488
      11  | 52:19.64 |    4:57.52   |      235489      |     257815
      12  | 57:17.41 |    7:53.17   |      257816      |     293307
Характеристики диапазона извлечения и сообщения об ошибках
Выбранный диапазон
     Имя файла D:\Музыка (Lossless)\Ария\2015 - Котёл Истории - Live MMXV\Ария - Котёл Истории - Live MMXV.wav
     Пиковый уровень 100.0 %
     Скорость извлечения 2.8 X
     Качество диапазона 100.0 %
     CRC теста 4C4D04C6
     CRC копии 4C4D04C6
     Копирование... OK
Ошибок не произошло
AccurateRip: сводка
Трек  1  отсутствует в базе данных
Трек  2  отсутствует в базе данных
Трек  3  отсутствует в базе данных
Трек  4  отсутствует в базе данных
Трек  5  отсутствует в базе данных
Трек  6  отсутствует в базе данных
Трек  7  отсутствует в базе данных
Трек  8  отсутствует в базе данных
Трек  9  отсутствует в базе данных
Трек 10  отсутствует в базе данных
Трек 11  отсутствует в базе данных
Трек 12  отсутствует в базе данных
Ни одного трека нет в базе AccurateRip
Конец отчёта
---- CUETools DB Plugin V2.1.6
[CTDB TOCID: krm57tLmW4SWkBALQJFXR3x134A-] disk not present in database
Submit result: krm57tLmW4SWkBALQJFXR3x134A- has been uploaded

Индексная карта (non-compilant .cue)

REM GENRE "Heavy Metal"
REM DATE 2015
REM DISCID 8D0F460C
REM COMMENT "ExactAudioCopy v1.1"
PERFORMER "Ария"
TITLE "Котёл Истории: Live MMXV"
FILE "Ария - Котёл Истории - Live MMXV.flac" WAVE
  TRACK 01 AUDIO
    TITLE "Интро"
    PERFORMER "Ария"
    INDEX 01 00:00:00
  TRACK 02 AUDIO
    TITLE "Горящая Стрела"
    PERFORMER "Ария"
    INDEX 01 01:53:46
  TRACK 03 AUDIO
    TITLE "Ангелы Неба"
    PERFORMER "Ария"
    INDEX 01 06:19:63
  TRACK 04 AUDIO
    TITLE "Не Сходи С Ума"
    PERFORMER "Ария"
    INDEX 01 11:00:64
  TRACK 05 AUDIO
    TITLE "Точка Невозврата"
    PERFORMER "Ария"
    INDEX 01 16:41:49
  TRACK 06 AUDIO
    TITLE "Атака Мертвецов"
    PERFORMER "Ария"
    INDEX 01 21:57:56
  TRACK 07 AUDIO
    TITLE "Игра С Огнём"
    PERFORMER "Ария"
    INDEX 01 28:51:67
  TRACK 08 AUDIO
    TITLE "Паранойя"
    PERFORMER "Ария"
    INDEX 01 37:56:59
  TRACK 09 AUDIO
    TITLE "Король Дороги"
    PERFORMER "Ария"
    INDEX 01 42:49:53
  TRACK 10 AUDIO
    TITLE "Там Высоко"
    PERFORMER "Ария"
    INDEX 01 46:58:45
  TRACK 11 AUDIO
    TITLE "Последний Закат"
    PERFORMER "Ария"
    INDEX 01 52:19:64
  TRACK 12 AUDIO
    TITLE "Небо Тебя Найдёт"
    PERFORMER "Ария"
    INDEX 01 57:17:41
-- --
Яндекс.Метрика
Рейтинг@Mail.ru