Рыцари / Knights [серии 1-3 из 3] (Christian Feyerabend) [2014 г., Документальный, история, постановочный, SATRip]

 

Создавать темы 12-Янв-2016 10:23

-Рыцари / Knights [серии 1-3 из 3] (Christian Feyerabend)- Год выпуска: 2014
Страна: Германия, Gruppe 5 Filmproduktion, Zweites Deutsches Fernsehen (ZDF)
Жанр: Документальный, история, постановочный
Продолжительность: 3x~00:50:10
Перевод: Профессиональный (одноголосый), компания "Видеофильм ТВ"
Режиссер: Christian Feyerabend-Описание:-Рыцари... Как они пережили заговоры, распри и осады? Как они побеждали в поединках или крупных сражениях? Зачем они сражались в турнирах и как они вошли в легенды? Поскольку они окончательно не вымерли то живут и по сей день: в кино, видеоиграх и фестивалях.
В этом сериале мы проследим путь становления рыцарства от самого начала и до последних дней, узнаем что представляло собой оружие рыцаря, как создавались луки, мечи и кольчуга. Познакомимся с жилищами рыцарей и их бытом. Примем участие в рыцарских турнирах, походах и войнах, которые вели рыцари.
-Список серий:-01. Закованные в железо
02. Во имя чести и славы
03. Последний в своем роде
-Качество: SATRip
Контейнер: AVI
Видео кодек: XviD
Аудио кодек: AC3
Видео: 720x400 25fps ~1800 Kbps
Аудио: AC3 2ch, 48kHz, 192 kbps-

MediaInfo

Format : AVI
Format/Info : Audio Video Interleave
File size : 717 MiB
Duration : 50mn 10s
Overall bit rate : 1 997 Kbps
Writing application : TMPGEnc Video Mastering Works 5 Version. 5.0.6.38
Writing library : TMPGEnc Video Mastering Works 5 Version. 5.0.6.38
Video
ID : 0
Format : MPEG-4 Visual
Format profile : Advanced [email protected]
Format settings, BVOP : 2
Format settings, QPel : No
Format settings, GMC : No warppoints
Format settings, Matrix : Default (H.263)
Muxing mode : Packed bitstream
Codec ID : XVID
Codec ID/Hint : XviD
Duration : 50mn 10s
Bit rate : 1 797 Kbps
Width : 720 pixels
Height : 400 pixels
Display aspect ratio : 16:9
Frame rate : 25.000 fps
Color space : YUV
Chroma subsampling : 4:2:0
Bit depth : 8 bits
Scan type : Progressive
Compression mode : Lossy
Bits/(Pixel*Frame) : 0.250
Stream size : 645 MiB (90%)
Writing library : XviD 73
Audio
ID : 1
Format : AC-3
Format/Info : Audio Coding 3
Mode extension : CM (complete main)
Format settings, Endianness : Big
Codec ID : 2000
Duration : 50mn 10s
Bit rate mode : Constant
Bit rate : 192 Kbps
Channel(s) : 2 channels
Channel positions : Front: L R
Sampling rate : 48.0 KHz
Bit depth : 16 bits
Compression mode : Lossy
Stream size : 68.9 MiB (10%)
Alignment : Aligned on interleaves
Interleave, duration : 240 ms (6.00 video frames)
Interleave, preload duration : 224 ms
-Скриншоты--Благодарность за предоставленный рип: -Время раздачи: 24/7 (круглосуточно)-
Яндекс.Метрика
Рейтинг@Mail.ru