[ Сегодня на трекере фрилич! Идет свободное скачивание без начисления Download ]

Восставший из ада 3: Ад на Земле / Hellraiser III: Hell on Earth (1992) BDRip-AVC | P, A

 

Создавать темы 24-Дек-2013 10:52

Восставший из ада 3: Ад на Земле
Hellraiser III: Hell on Earth

Страна: США, Канада
Жанр: ужасы
Год выпуска: 1992
Продолжительность: 01:33:06
Перевод: Профессиональный (многоголосый закадровый) + авторский (одноголосый закадровый)
Cубтитры: отсутствуют
Режиссер: Энтони Хикокс / Anthony Hicko
В ролях: Даг Брэдли, Кевин Бернхардт, Лоуренс Морторфф, Терри Фаррелл, Кен Карпентер, Шарон Хилл, Пола Маршалл, Роберт С. Тревилер, Кристофер Фредерик, Лоуренс Куппин, Шарон Персивал
Описание:
Недремлющее Зло вновь вырывается из своего потустороннего плена и начинает настоящую бойню. И, как это частенько водится, на всей планете есть только один человек, который в состоянии противостоять темной адской воле этого исчадия — милая и очаровательная тележурналистка Джоуи.
Качество: BDRip-AVC
Формат: MKV
Видео: MPEG-4 AVC, 1024x576 (16:9), 23.976 fps, ~3701 kbps, 0.262 bit/pixel
Аудио #1: Russian, Audio Coding 3, 48 kHz, DD 5.1 ch, CBR 384 kbps | многоголосый закадровый, R5
Аудио #2: Russian, Audio Coding 3, 48 kHz, DD 5.1 ch, CBR 384 kbps | одноголосый закадровый, Гаврилов

MediaInfo

Format : Matroska
Format version : Version 2
File size : 2.91 GiB
Duration : 1h 33mn
Overall bit rate : 4 469 Kbps
Encoded date : UTC 2012-08-09 19:39:44
Writing application : mkvmerge v5.6.0 ('Kenya Kane') built on May 27 2012 16:44:04
Writing library : libebml v1.2.3 + libmatroska v1.3.0
Video
ID : 1
Format : AVC
Format/Info : Advanced Video Codec
Format profile : [email protected]
Format settings, CABAC : Yes
Format settings, ReFrames : 14 frames
Codec ID : V_MPEG4/ISO/AVC
Duration : 1h 33mn
Bit rate : 3 701 Kbps
Width : 1 024 pixels
Height : 576 pixels
Display aspect ratio : 16:9
Frame rate : 23.976 fps
Color space : YUV
Chroma subsampling : 4:2:0
Bit depth : 8 bits
Scan type : Progressive
Bits/(Pixel*Frame) : 0.262
Stream size : 2.35 GiB (81%)
Title : Hellraiser III: Hell on Earth
Writing library : x264 core 125 r2200 999b753
Encoding settings : cabac=1 / ref=14 / deblock=1:-1:-1 / analyse=0x3:0x113 / me=umh / subme=11 / psy=1 / psy_rd=1.00:0.15 / mixed_ref=1 / me_range=32 / chroma_me=1 / trellis=2 / 8x8dct=1 / cqm=0 / deadzone=21,11 / fast_pskip=0 / chroma_qp_offset=-3 / threads=12 / lookahead_threads=2 / sliced_threads=0 / nr=0 / decimate=1 / interlaced=0 / bluray_compat=0 / constrained_intra=0 / bframes=13 / b_pyramid=2 / b_adapt=2 / b_bias=0 / direct=3 / weightb=1 / open_gop=0 / weightp=2 / keyint=240 / keyint_min=23 / scenecut=40 / intra_refresh=0 / rc_lookahead=40 / rc=2pass / mbtree=1 / bitrate=3701 / ratetol=1.0 / qcomp=0.70 / qpmin=10 / qpmax=51 / qpstep=4 / cplxblur=20.0 / qblur=0.5 / ip_ratio=1.40 / aq=2:1.00
Language : English
Default : Yes
Forced : No
Audio #1
ID : 2
Format : AC-3
Format/Info : Audio Coding 3
Mode extension : CM (complete main)
Format settings, Endianness : Big
Codec ID : A_AC3
Duration : 1h 33mn
Bit rate mode : Constant
Bit rate : 384 Kbps
Channel(s) : 6 channels
Channel positions : Front: L C R, Side: L R, LFE
Sampling rate : 48.0 KHz
Bit depth : 16 bits
Compression mode : Lossy
Stream size : 256 MiB (9%)
Title : MVO (R5)
Language : Russian
Default : Yes
Forced : No
Audio #2
ID : 3
Format : AC-3
Format/Info : Audio Coding 3
Mode extension : CM (complete main)
Format settings, Endianness : Big
Codec ID : A_AC3
Duration : 1h 33mn
Bit rate mode : Constant
Bit rate : 384 Kbps
Channel(s) : 6 channels
Channel positions : Front: L C R, Side: L R, LFE
Sampling rate : 48.0 KHz
Bit depth : 16 bits
Compression mode : Lossy
Stream size : 256 MiB (9%)
Title : AVO (Гаврилов)
Language : Russian
Default : No
Forced : No
Menu
00:00:00.000 : en:00:00:00.000
00:09:26.085 : en:00:09:26.085
00:20:01.554 : en:00:20:01.554
00:28:15.005 : en:00:28:15.005
00:40:06.549 : en:00:40:06.549
00:49:01.250 : en:00:49:01.250
01:00:45.412 : en:01:00:45.412
01:10:40.756 : en:01:10:40.756
01:20:20.127 : en:01:20:20.127
01:28:30.200 : en:01:28:30.200

Скриншоты

Яндекс.Метрика
Рейтинг@Mail.ru