[ Сегодня на трекере фрилич! Идет свободное скачивание без начисления Download ]

Королевство викингов / Vikingdom (2013) BDRip 1080p | 3D-Video | HSBS | BaibaKo

 

Создавать темы 24-Дек-2013 03:37

-"КОРОЛЕВСТВО ВИКИНГОВ"- Информация о фильме
Название: Королевство викингов
Оригинальное название: Vikingdom
Год выхода: 2013
Жанр: Приключения, фэнтези, боевик
Режиссер: Исри Крю
В ролях: Доминик Пёрселл, Натасия Мальте, Крэйг Фэйрбрасс, Джон Фу, Конан Стивенс, Джесси Мосс, Теган Мосс, Патрик Мюррэй, Байрон Гибсон, Тревор Коппола
О фильме:
Воин, пытающийся забыть жестокость своего прошлого, вынужден вновь взять в руки меч, чтобы сразиться с невообразимой силы божеством.

Страна: США
Продолжительность: 01:54:32
Перевод: Профессиональный (многоголосый, закадровый)
- BaibaKo

Файл
Кодек: H.264/MPEG-4 AVC
Формат: MKV
Качество: BDRip 1080p
Видео: ~ 8800 kbps, 1920x1080, 23,976 fps
Аудио RUS: AC-3, 48.0 KHz, 6 ch, 384 kbps
Аудио ENG: AC-3, 48.0 KHz, 2 ch, 128 kbps
Субтитры: нет
Формат 3D: Half SideBySide (Горизонтальная анаморфная стереопара)
Порядок ракурсов: левый ракурс первый
-

Скриншоты

-

MediaInfo

Общее
Уникальный идентификатор : 236077921719750269277810259356206765986 (0xB19AF4307D14BE8EBD4F67A601F817A2)
Полное имя : Vikingdom.3D.2013.HSBS.mkv
Формат : Matroska
Версия формата : Version 2
Размер файла : 7,61 Гбайт
Продолжительность : 1 ч. 54 м.
Режим общего битрейта : Переменный
Общий поток : 9507 Кбит/сек
Дата кодирования : UTC 2013-12-19 10:56:51
Программа кодирования : mkvmerge v4.0.0 ('The Stars were mine') сборка от Jun 6 2010 16:18:42
Библиотека кодирования : libebml v1.0.0 + libmatroska v1.0.0
Видео
Идентификатор : 1
Формат : AVC
Формат/Информация : Advanced Video Codec
Профиль формата : [email protected]
Параметр CABAC формата : Нет
Параметр ReFrames формата : 1 кадр
Идентификатор кодека : V_MPEG4/ISO/AVC
Продолжительность : 1 ч. 54 м.
Вид битрейта : Переменный
Битрейт : 8806 Кбит/сек
Максимальный битрейт : 13,5 Мбит/сек
Ширина : 1920 пикселей
Высота : 1080 пикселей
Соотношение сторон : 16:9
Режим частоты кадров : Постоянный
Частота кадров : 23,976 кадра/сек
Частота кадров в оригинале : 24,000 кадра/сек
Цветовое пространство : YUV
Субдискретизация насыщенности : 4:2:0
Битовая глубина : 8 бит
Тип развёртки : Прогрессивная
Бит/(Пиксели*Кадры) : 0.177
Размер потока : 7,05 Гбайт (93%)
Default : Нет
Forced : Нет
Аудио #1
Идентификатор : 2
Формат : AC-3
Формат/Информация : Audio Coding 3
Расширение режима : CM (complete main)
Параметр Endianness формата : Big
Идентификатор кодека : A_AC3
Продолжительность : 1 ч. 54 м.
Вид битрейта : Постоянный
Битрейт : 384 Кбит/сек
Каналы : 6 каналов
Расположение каналов : Front: L C R, Side: L R, LFE
Частота : 48,0 КГц
Битовая глубина : 16 бит
Метод сжатия : С потерями
Размер потока : 315 Мбайт (4%)
Язык : Russian
Default : Да
Forced : Нет
Аудио #2
Идентификатор : 3
Формат : AC-3
Формат/Информация : Audio Coding 3
Расширение режима : CM (complete main)
Параметр Endianness формата : Big
Идентификатор кодека : A_AC3
Продолжительность : 1 ч. 54 м.
Вид битрейта : Постоянный
Битрейт : 128 Кбит/сек
Каналы : 2 канала
Расположение каналов : Front: L R
Частота : 44,1 КГц
Битовая глубина : 16 бит
Метод сжатия : С потерями
Размер потока : 105 Мбайт (1%)
Язык : English
Default : Нет
Forced : Нет
-

Создавать темы 31-Янв-2016 13:59 (спустя 2 года 1 месяц)

Топик был перенесен из форума Зарубежные Новинки (HD*Rip/LQ, DVDRip) в форум Зарубежные Фильмы (3D)
T_O_M
Яндекс.Метрика
Рейтинг@Mail.ru