[ Сегодня на трекере фрилич! Идет свободное скачивание без начисления Download ]

Медвежатник / The Score (2001) BDRip от New-Team

 

Создавать темы 24-Дек-2013 03:28

Страна: США, Германия
Производство: Cineartists AG, Eagle Point Production, Horseshoe Bay Productions, Lee Rich Productions, Mandalay Pictures, Paramount Pictures
Жанр: боевик, триллер, криминал
Год выпуска: 2001
Продолжительность: 02:04:01
Перевод: Профессиональный (многоголосый закадровый) (R1)
Оригинальная аудиодорожка: нет
Cубтитры: нет
Режиссер: Фрэнк Оз / Frank Oz
В ролях:
Роберт Де Ниро, Эдвард Нортон, Марлон Брандо, Анджела Бассетт, Гэри Фармер, Пол Соулз, Джэми Харольд, Серж Уд, Жан-Рене Уэлле, Мартин Дрэнвиль...
Описание:
Максу удается уговорить Ника Уэллса поступиться своими двумя самыми важными правилами: всегда работать в одиночку и никогда не грабить в своем городе. Макс нашел ему партнера. События начинают стремительно развиваться. Каждый из медвежатников старается обыграть другого. Планируемое ограбление держит всех в напряжении от начала и до конца. Развязка наступает неожиданно…- -Исходник: BDRemux 1080p
Тип релиза: BDRip
Контейнер: AVI
Видео: 720x304 (2,35:1), 23,976 fps, XviD ~ 1225 kbps avg, 0.233 bit/pixel
Аудио: 48 kHz, Dolby Digital AC3 5.1, 448 kbps

MediaInfo

Общее
Полное имя : Medvezhatnik.2001.BDRip_[New-team]_by_AVP_Studio.avi
Формат : AVI
Формат/Информация : Audio Video Interleave
Размер файла : 1,46 Гбайт
Продолжительность : 2 ч. 4 м.
Общий поток : 1682 Кбит/сек
Программа кодирования : VirtualDubModRus 1.5.10.2 (build 2542/release)
Библиотека кодирования : VirtualDubMod build 2542/release
Видео
Идентификатор : 0
Формат : MPEG-4 Visual
Профиль формата : Advanced [email protected]
Параметр BVOP формата : 1
Параметр QPel формата : Нет
Параметр GMC формата : Без точки перехода
Параметр матрицы формата : Выборочная
Идентификатор кодека : XVID
Идентификатор кодека/Подсказка : XviD
Продолжительность : 2 ч. 4 м.
Битрейт : 1225 Кбит/сек
Ширина : 720 пикселей
Высота : 304 пикселя
Соотношение сторон : 2,35:1
Частота кадров : 23,976 кадра/сек
Цветовое пространство : YUV
Субдискретизация насыщенности : 4:2:0
Битовая глубина : 8 бит
Тип развёртки : Прогрессивная
Метод сжатия : С потерями
Бит/(Пиксели*Кадры) : 0.233
Размер потока : 1,06 Гбайт (73%)
Библиотека кодирования : XviD 73
Аудио
Идентификатор : 1
Формат : AC-3
Формат/Информация : Audio Coding 3
Расширение режима : CM (complete main)
Идентификатор кодека : 2000
Продолжительность : 2 ч. 4 м.
Вид битрейта : Постоянный
Битрейт : 448 Кбит/сек
Каналы : 6 каналов
Расположение каналов : Front: L C R, Side: L R, LFE
Частота : 48,0 КГц
Битовая глубина : 16 бит
Метод сжатия : С потерями
Размер потока : 397 Мбайт (27%)
Выравнивание : Разделение по промежуткам
Продолжительность промежутка : 42 мс. (1,00 видеокадр)
Время предзагрузки промежутка : 500 мс

Скриншоты

Интересные факты

Название фильма «The Score» нельзя перевести с английского односложно, допустимо более 20 смысловых понятий. Наиболее близким переводом было бы слово «Оценка» (в значении «правильно оценить происходящее»). В кинопрокате всего мира фильм имеет самые разные, порой нетривиальные названия: в России фильм получил название «Медвежатник», в Испании — «Ловкий ход» (Un golpe maestro), в Аргентине — «Финальный счёт» (Cuenta final), во Франции — «Большой приз Квебека» (Le Grand Coup au Québec), в Португалии — «Выхода нет» (Sem Saída), В Польше — «Розыгрыш» (Rozgrywka). Большинство других национальных кинопрокатчиков название фильма переводить вообще не стали, подчеркнув это сохранением в названии английского определённого артикля «The».
Фраза которую в начале фильма произносит героиня Анджелы Бассет «Увидимся когда увидимся» позаимствована, разумеется, из фильма «Шулера», где Нортон сыграл одну из главных ролей.
В процессе съемок Брандо часто был не согласен с режиссёром, его споры, а потом и отношения с Фрэнком Озом достигали высокого накала. Марлон Брандо называл режиссёра «Мисс Пигги» (англ. Miss Piggy), так как Фрэнк Оз начинал свою творческую карьеру кукловодом и озвучивал, в том числе, этого известного кукольного персонажа[2]. Этот фильм стал последним в жизни Марлона Брандо. Он умер в 2004 году в возрасте 80 лет.
Марлон Брандо и Роберт Де Ниро — два маститых американских актёра — впервые появляются на экране вместе, хотя ранее играли одного и того же персонажа — Вито Корлеоне в фильмах Крёстный отец и Крёстный отец II (соответственно). За исполнение роли главы преступного клана в разные периоды его жизни оба получили премию Оскар.
Яндекс.Метрика
Рейтинг@Mail.ru