[ Сегодня на трекере фрилич! Идет свободное скачивание без начисления Download ]

Песня года 2015 [01-02 из 02] (2016) HDTVRip-720p от HDLine

 

Создавать темы 07-Янв-2016 15:44

Информация о контенте
Название: Песня года 2015
Год выхода: 2016
Жанр: Эстрада, поп-музыка
Ведущие: Лера Кудрявцева, Сергей Лазарев
О контенте:
Каждый год в первые дни нового года мы с радостью слышим позывные любимой программы: "Через годы, через расстояния, на любой дороге, в стороне любой песне ты не скажешь "до свидания", песня не прощается с тобой…" На сцене "Олимпийского" соберутся лучшие исполнители 2015-го, которые напомнят о самых ярких и счастливых минутах уходящего года. Концерт "Песня года" в Москве - это своеобразное подведение итогов. Каждый уходящий год - это отдельный музыкальный сезон, в котором были свои дебюты и свои провалы, взлеты и падения. На протяжении более сорока лет бренд "Песня года" является знаменитым и самым популярным среди тех, кто знает и любит российскую музыку, следит за творчеством звезд эстрады, посещает концерты и шоу-программы. Пожалуй, это единственный случай, когда за один вечер на одной сцене можно увидеть всех лучших представителей российского шоу-бизнеса. Навигация по трекам для удобного серфинга по концерту присутствует.
Официальный сайт
Страна: Россия
Студия: АРТ СИТИ 5/Россия HD
Продолжительность: 2 x ~ 02:30:00
Язык: Русский
Файл
Качество: HDTVRip-720p
Контейнер: MKV
Видео кодек: H.264
Видео: 1280x720 at 25 fps, 16:9, x264 [email protected], 5000 kbps
Звук:
Аудио: AC3, 48 kHz, 2/0 (L,R), 16-bit, 192 kbps
Главы: присутствуют и подписаны названиями песен

Инфо-файл

General
Unique ID                                : 229774782553515785337810892927138764662 (0xACDD036F64DFEC7E9E57CDC8B73F9776)
Complete name                            : Pesnj_Goda_2015_1.mkv
Format                                   : Matroska
Format version                           : Version 4 / Version 2
File size                                : 5.17 GiB
Duration                                 : 2h 22mn
Overall bit rate                         : 5 194 Kbps
Movie name                               : Песня года 2015-01 (2016) HDTVRip-720p [HDLine]
Encoded date                             : UTC 2016-01-06 12:14:29
Writing application                      : mkvmerge v8.7.0 ('All of the above') 64bit
Writing library                          : libebml v1.3.3 + libmatroska v1.4.4
Attachements                             : Cover.jpg
Video
ID                                       : 1
Format                                   : AVC
Format/Info                              : Advanced Video Codec
Format profile                           : [email protected]
Format settings, CABAC                   : Yes
Format settings, ReFrames                : 4 frames
Codec ID                                 : V_MPEG4/ISO/AVC
Duration                                 : 2h 22mn
Bit rate                                 : 5 000 Kbps
Width                                    : 1 280 pixels
Height                                   : 720 pixels
Display aspect ratio                     : 16:9
Frame rate mode                          : Constant
Frame rate                               : 25.000 fps
Color space                              : YUV
Chroma subsampling                       : 4:2:0
Bit depth                                : 8 bits
Scan type                                : Progressive
Bits/(Pixel*Frame)                       : 0.217
Stream size                              : 4.97 GiB (96%)
Title                                    : Песня года 2015 (часть 1)
Writing library                          : x264 core 148 r2638kMod 7599210
Encoding settings                        : cabac=1 / ref=5 / deblock=1:0:0 / analyse=0x3:0x133 / me=umh / subme=10 / psy=1 / fade_compensate=0.00 / psy_rd=1.00:0.00 / mixed_ref=1 / me_range=24 / chroma_me=1 / trellis=2 / 8x8dct=1 / cqm=0 / deadzone=21,11 / fast_pskip=1 / chroma_qp_offset=-2 / threads=7 / lookahead_threads=1 / sliced_threads=0 / nr=0 / decimate=1 / interlaced=0 / bluray_compat=1 / constrained_intra=0 / fgo=0 / bframes=3 / b_pyramid=1 / b_adapt=2 / b_bias=0 / direct=3 / weightb=1 / open_gop=0 / weightp=1 / keyint=250 / keyint_min=1 / scenecut=40 / intra_refresh=0 / rc_lookahead=60 / rc=2pass / mbtree=1 / bitrate=5000 / ratetol=1.0 / qcomp=0.60 / qpmin=0 / qpmax=69 / qpstep=4 / cplxblur=20.0 / qblur=0.5 / ip_ratio=1.40 / aq=1:1.00
Language                                 : Russian
Default                                  : Yes
Forced                                   : No
Audio
ID                                       : 2
Format                                   : AC-3
Format/Info                              : Audio Coding 3
Mode extension                           : CM (complete main)
Format settings, Endianness              : Big
Codec ID                                 : A_AC3
Duration                                 : 2h 22mn
Bit rate mode                            : Constant
Bit rate                                 : 192 Kbps
Channel(s)                               : 2 channels
Channel positions                        : Front: L R
Sampling rate                            : 48.0 KHz
Frame rate                               : 31.250 fps (1536 spf)
Compression mode                         : Lossy
Stream size                              : 196 MiB (4%)
Title                                    : AC3 2.0 [email protected]
Language                                 : Russian
Default                                  : Yes
Forced                                   : No
[hr]
General
Unique ID                                : 176981879496475543935635697531067323696 (0x8525785AAD48C503B87026F3E2785530)
Complete name                            : Pesnj_Goda_2015_2.mkv
Format                                   : Matroska
Format version                           : Version 4 / Version 2
File size                                : 5.66 GiB
Duration                                 : 2h 35mn
Overall bit rate                         : 5 194 Kbps
Movie name                               : Песня года 2015-02 (2016) HDTVRip-720p [HDLine]
Encoded date                             : UTC 2016-01-06 12:20:53
Writing application                      : mkvmerge v8.7.0 ('All of the above') 64bit
Writing library                          : libebml v1.3.3 + libmatroska v1.4.4
Attachements                             : Cover.jpg
Video
ID                                       : 1
Format                                   : AVC
Format/Info                              : Advanced Video Codec
Format profile                           : [email protected]
Format settings, CABAC                   : Yes
Format settings, ReFrames                : 4 frames
Codec ID                                 : V_MPEG4/ISO/AVC
Duration                                 : 2h 35mn
Bit rate                                 : 5 000 Kbps
Width                                    : 1 280 pixels
Height                                   : 720 pixels
Display aspect ratio                     : 16:9
Frame rate mode                          : Constant
Frame rate                               : 25.000 fps
Color space                              : YUV
Chroma subsampling                       : 4:2:0
Bit depth                                : 8 bits
Scan type                                : Progressive
Bits/(Pixel*Frame)                       : 0.217
Stream size                              : 5.44 GiB (96%)
Title                                    : Песня года 2015 (часть 2)
Writing library                          : x264 core 148 r2638kMod 7599210
Encoding settings                        : cabac=1 / ref=5 / deblock=1:0:0 / analyse=0x3:0x133 / me=umh / subme=10 / psy=1 / fade_compensate=0.00 / psy_rd=1.00:0.00 / mixed_ref=1 / me_range=24 / chroma_me=1 / trellis=2 / 8x8dct=1 / cqm=0 / deadzone=21,11 / fast_pskip=1 / chroma_qp_offset=-2 / threads=7 / lookahead_threads=1 / sliced_threads=0 / nr=0 / decimate=1 / interlaced=0 / bluray_compat=1 / constrained_intra=0 / fgo=0 / bframes=3 / b_pyramid=1 / b_adapt=2 / b_bias=0 / direct=3 / weightb=1 / open_gop=0 / weightp=1 / keyint=250 / keyint_min=1 / scenecut=40 / intra_refresh=0 / rc_lookahead=60 / rc=2pass / mbtree=1 / bitrate=5000 / ratetol=1.0 / qcomp=0.60 / qpmin=0 / qpmax=69 / qpstep=4 / cplxblur=20.0 / qblur=0.5 / ip_ratio=1.40 / aq=1:1.00
Language                                 : Russian
Default                                  : Yes
Forced                                   : No
Audio
ID                                       : 2
Format                                   : AC-3
Format/Info                              : Audio Coding 3
Mode extension                           : CM (complete main)
Format settings, Endianness              : Big
Codec ID                                 : A_AC3
Duration                                 : 2h 35mn
Bit rate mode                            : Constant
Bit rate                                 : 192 Kbps
Channel(s)                               : 2 channels
Channel positions                        : Front: L R
Sampling rate                            : 48.0 KHz
Frame rate                               : 31.250 fps (1536 spf)
Compression mode                         : Lossy
Stream size                              : 214 MiB (4%)
Title                                    : AC3 2.0 [email protected]
Language                                 : Russian
Default                                  : Yes
Forced                                   : No

Треклист

День первый:
01. Валерия - Формула счастья
02. Валерий Меладзе и Константин Меладзе - Мой брат
03. София Ротару - Давай устроим лето
04. Любовь Успенская и Филипп Киркоров - Забываю
05. Лолита - Не совсем
06. Леонид Агутин - Мир зелёного цвета
07. Ирина Аллегрова - Алиби
08. Дима Билан - Не молчи
09. Сосо Павлиашвили и Roberto Kel Torres - В моём сердце Куба
10. Кристина Орбакайте - День пройдёт
11. Николай Басков - Любовь - не слова
12. Наргиз Закирова - Ты моя нежность
13. MBAND - Посмотри на меня
14. Слава - Однолюб
15. Игорь Николаев - Русские любят красиво
16. Анжелика Варум - Лететь
17. Эмин - Забыть тебя
18. Ирина Дубцова - Люба - любовь
19. Пицца - Лифт
20. Александр Серов - Я хочу тебя видеть
21. Зара - Этот год любви
22. Олег Газманов - Именно она
23. Серебро - Перепутала
24. Лайма Вайкуле - Оставь
25. Филипп Киркоров - Прохожие
26. Сводный хор участников Новой Волны - Уеду в Сочи
День второй:
01. Филипп Киркоров - Индиго
02. Вера Брежнева - Мамочка
03. Стас Михайлов - Понимаю, ты устала
04. Таисия Повалий - Твоих рук родные объятья
05. Сергей Лазарев - Это всё она
06. A'STUDIO - Вот она любовь
07. Стас Пьеха - Несовместимая любовь
08. Ани Лорак - Осенняя любовь
09. Денис Клявер - Я обязательно вернусь
10. Валерия и Анна Шульгина - Ты моя
11. Лев Лещенко - Создан для тебя
12. IOWA - Маршрутка
13. Николый Басков и Софи - Ты моё счастье
14. Нюша - Цунами
15. Александр Буйнов - Нам с тобой по пути
16. Жасмин - Зависимость
17. Наталья Сенчукова и Виктор Рыбин - Крестики-нолики
18. Ёлка - моревнутри
19. ВИА ГРА - Это было прекрасно
20. Алсу - Разлюбить не в силах
21. Валерий Леонтьев - Паромщик
22. Наташа Королёва - Нет слова Я
23. Иосиф Кобзон - Семейный праздник
24. Burito - Мама
25. Лариса Долина - Не на века
26. Джиган и Юлия Савичева - Любить больше нечем
27. Любовь Успенская - Горький вкус бузины
28. Дискотека Авария - Девушка за рулём
29. Вячеслав Добрынин - Попурри
30. ПЕСНЯ ОСТАЁТСЯ С ЧЕЛОВЕКОМ

Скриншоты

Релиз от
Яндекс.Метрика
Рейтинг@Mail.ru