[ Сегодня на трекере фрилич! Идет свободное скачивание без начисления Download ]

(Power Metal) Powerwolf - Collection (17CD) - 2005-2015 [FLAC, image+.cue, lossless]

 

Создавать темы 07-Янв-2016 00:44

-Powerwolf / Collection (17CD)-- Год издания: 2005-2015 | Страна: Germany | Жанр: Power Metal | Продолжительность: 11:45:34 | Лейбл издания: Metal Blade Records / Napalm Records- Страна-выпуска диска: Germany | Формат: FLAC | Битрейт аудио: lossless | Тип рипа: image+.cue | Наличие сканов в содержимом раздачи: да- --

Трэклист

2005 - Return in Bloodred | 00:40:03

Лейбл издания: Blade Records
Номер по каталогу: 3984-14534-2


01.Mr. Sinister (04:40)
02.We Came to Take Your Souls (04:01)
03.Kiss of the Cobra King (04:33)
04.Black Mass Hysteria (04:13)
05.Demons & Diamonds (03:39)
06.Montecore (05:19)
07.The Evil Made Me Do It (03:39)
08.Lucifer in Starlight (04:50)
09.Son of the Morning Star (05:13)

лог создания рипа

Exact Audio Copy V1.0 beta 3 from 29. August 2011
EAC extraction logfile from 5. February 2014, 19:16
Powerwolf / Return in Bloodred
Used drive  : _NEC    DVD_RW ND-4571A   Adapter: 0  ID: 0
Read mode               : Secure
Utilize accurate stream : Yes
Defeat audio cache      : Yes
Make use of C2 pointers : No
Read offset correction                      : 48
Overread into Lead-In and Lead-Out          : No
Fill up missing offset samples with silence : Yes
Delete leading and trailing silent blocks   : No
Null samples used in CRC calculations       : Yes
Used interface                              : Native Win32 interface for Win NT & 2000
Used output format : Internal WAV Routines
Sample format      : 44.100 Hz; 16 Bit; Stereo
TOC of the extracted CD
     Track |   Start  |  Length  | Start sector | End sector
    ---------------------------------------------------------
        1  |  0:00.00 |  4:39.17 |         0    |    20941
        2  |  4:39.17 |  4:00.45 |     20942    |    38986
        3  |  8:39.62 |  4:32.13 |     38987    |    59399
        4  | 13:12.00 |  4:12.32 |     59400    |    78331
        5  | 17:24.32 |  3:38.55 |     78332    |    94736
        6  | 21:03.12 |  5:18.53 |     94737    |   118639
        7  | 26:21.65 |  3:38.35 |    118640    |   135024
        8  | 30:00.25 |  4:49.47 |    135025    |   156746
        9  | 34:49.72 |  5:12.13 |    156747    |   180159
       10  | 42:34.10 |  1:52.29 |    191560    |   199988
Range status and errors
Selected range
     Filename D:\EAC\vknish\Powerwolf - Return in Bloodred.wav
     Peak level 98.8 %
     Extraction speed 4.5 X
     Range quality 100.0 %
     Test CRC 6EE3F94D
     Copy CRC 6EE3F94D
     Copy OK
No errors occurred
AccurateRip summary
Track  1  accurately ripped (confidence 17)  [E2BB7147]  (AR v2)
Track  2  accurately ripped (confidence 16)  [987784C8]  (AR v2)
Track  3  accurately ripped (confidence 16)  [3632FEE9]  (AR v2)
Track  4  accurately ripped (confidence 16)  [055FC3C4]  (AR v2)
Track  5  accurately ripped (confidence 16)  [B28E4EC8]  (AR v2)
Track  6  accurately ripped (confidence 16)  [82A3E3E5]  (AR v2)
Track  7  accurately ripped (confidence 16)  [2F77B1B4]  (AR v2)
Track  8  accurately ripped (confidence 16)  [05C06FFE]  (AR v2)
Track  9  accurately ripped (confidence 16)  [75D164D1]  (AR v2)
All tracks accurately ripped
End of status report
---- CUETools DB Plugin V2.1.3
[CTDB TOCID: DkwBHWzvJrMsIKwljAb_dCNu39w-] found, Submit result: DkwBHWzvJrMsIKwljAb_dCNu39w- has been confirmed
[929aba8a] (23/23) Accurately ripped

содержание индексной карты *cue

REM GENRE Metal
REM DATE 2005
REM DISCID 7C0A6A0A
REM COMMENT "ExactAudioCopy v1.0b3"
PERFORMER "Powerwolf"
TITLE "Return in Bloodred"
FILE "Powerwolf - Return in Bloodred.flac" WAVE
  TRACK 01 AUDIO
    TITLE "Mr. Sinister"
    PERFORMER "Powerwolf"
    INDEX 01 00:00:00
  TRACK 02 AUDIO
    TITLE "We Came to Take Your Souls"
    PERFORMER "Powerwolf"
    INDEX 01 04:39:17
  TRACK 03 AUDIO
    TITLE "Kiss of the Cobra King"
    PERFORMER "Powerwolf"
    INDEX 01 08:39:62
  TRACK 04 AUDIO
    TITLE "Black Mass Hysteria"
    PERFORMER "Powerwolf"
    INDEX 01 13:12:00
  TRACK 05 AUDIO
    TITLE "Demons & Diamonds"
    PERFORMER "Powerwolf"
    INDEX 01 17:24:32
  TRACK 06 AUDIO
    TITLE "Montecore"
    PERFORMER "Powerwolf"
    INDEX 01 21:03:12
  TRACK 07 AUDIO
    TITLE "The Evil Made Me Do It"
    PERFORMER "Powerwolf"
    INDEX 01 26:21:65
  TRACK 08 AUDIO
    TITLE "Lucifer in Starlight"
    PERFORMER "Powerwolf"
    INDEX 01 30:00:25
  TRACK 09 AUDIO
    TITLE "Son of the Morning Star"
    PERFORMER "Powerwolf"
    INDEX 01 34:49:72

2007 - Lupus Dei | 00:43:30

Лейбл издания: Blade Records
Номер по каталогу: 3984-14619-2


01.Lupus Daemonis (Intro) (01:18)
02.We Take It From The Living (04:04)
03.Prayer In The Dark (04:21)
04.Saturday Satan (05:19)
05.In Blood We Trust (03:03)
06.Behind The Leathermask (04:36)
07.Vampires Don't Die (03:09)
08.When The Moon Shines Red (04:26)
09.Mother Mary Is A Bird Of Prey (03:17)
10.Tiger Of Sabrod (03:54)
11.Lupus Dei (06:09)

лог создания рипа

Exact Audio Copy V1.0 beta 3 from 29. August 2011
EAC extraction logfile from 5. February 2014, 20:27
Powerwolf / Lupus Dei
Used drive  : _NEC    DVD_RW ND-4571A   Adapter: 0  ID: 0
Read mode               : Secure
Utilize accurate stream : Yes
Defeat audio cache      : Yes
Make use of C2 pointers : No
Read offset correction                      : 48
Overread into Lead-In and Lead-Out          : No
Fill up missing offset samples with silence : Yes
Delete leading and trailing silent blocks   : No
Null samples used in CRC calculations       : Yes
Used interface                              : Native Win32 interface for Win NT & 2000
Used output format : Internal WAV Routines
Sample format      : 44.100 Hz; 16 Bit; Stereo
TOC of the extracted CD
     Track |   Start  |  Length  | Start sector | End sector
    ---------------------------------------------------------
        1  |  0:00.00 |  1:17.20 |         0    |     5794
        2  |  1:17.20 |  4:03.67 |      5795    |    24086
        3  |  5:21.12 |  4:20.18 |     24087    |    43604
        4  |  9:41.30 |  5:18.04 |     43605    |    67458
        5  | 14:59.34 |  3:02.72 |     67459    |    81180
        6  | 18:02.31 |  4:35.06 |     81181    |   101811
        7  | 22:37.37 |  3:08.66 |    101812    |   115977
        8  | 25:46.28 |  4:25.05 |    115978    |   135857
        9  | 30:11.33 |  3:16.19 |    135858    |   150576
       10  | 33:27.52 |  3:53.21 |    150577    |   168072
       11  | 37:20.73 |  6:08.24 |    168073    |   195696
       12  | 46:01.22 |  5:18.56 |    207097    |   231002
Range status and errors
Selected range
     Filename D:\EAC\vknish\Powerwolf - Lupus Dei.wav
     Peak level 94.2 %
     Extraction speed 4.6 X
     Range quality 100.0 %
     Test CRC E86DF2ED
     Copy CRC E86DF2ED
     Copy OK
No errors occurred
AccurateRip summary
Track  1  accurately ripped (confidence 20)  [AA216569]  (AR v2)
Track  2  accurately ripped (confidence 19)  [0FA29EF3]  (AR v2)
Track  3  accurately ripped (confidence 19)  [EFC6AA15]  (AR v2)
Track  4  accurately ripped (confidence 19)  [1F900CB0]  (AR v2)
Track  5  accurately ripped (confidence 19)  [3538030D]  (AR v2)
Track  6  accurately ripped (confidence 19)  [E19CAE33]  (AR v2)
Track  7  accurately ripped (confidence 19)  [1B416E4B]  (AR v2)
Track  8  accurately ripped (confidence 19)  [3FAB2F64]  (AR v2)
Track  9  accurately ripped (confidence 19)  [AB649445]  (AR v2)
Track 10  accurately ripped (confidence 19)  [F0866F61]  (AR v2)
Track 11  accurately ripped (confidence 19)  [3AE236E8]  (AR v2)
All tracks accurately ripped
End of status report
---- CUETools DB Plugin V2.1.3
[CTDB TOCID: WQbznSK4juyU2DwPNyxu5nUQRZk-] found, Submit result: WQbznSK4juyU2DwPNyxu5nUQRZk- has been confirmed
[8f989a2b] (27/27) Accurately ripped

содержание индексной карты *cue

REM GENRE "Heavy Metal"
REM DATE 2007
REM DISCID 990C080C
REM COMMENT "ExactAudioCopy v1.0b3"
PERFORMER "Powerwolf"
TITLE "Lupus Dei"
FILE "Powerwolf - Lupus Dei.flac" WAVE
  TRACK 01 AUDIO
    TITLE "Lupus Daemonis (Intro)"
    PERFORMER "Powerwolf"
    INDEX 01 00:00:00
  TRACK 02 AUDIO
    TITLE "We Take It From The Living"
    PERFORMER "Powerwolf"
    INDEX 01 01:17:20
  TRACK 03 AUDIO
    TITLE "Prayer In The Dark"
    PERFORMER "Powerwolf"
    INDEX 00 05:21:10
    INDEX 01 05:21:12
  TRACK 04 AUDIO
    TITLE "Saturday Satan"
    PERFORMER "Powerwolf"
    INDEX 01 09:41:30
  TRACK 05 AUDIO
    TITLE "In Blood We Trust"
    PERFORMER "Powerwolf"
    INDEX 00 14:57:57
    INDEX 01 14:59:34
  TRACK 06 AUDIO
    TITLE "Behind The Leathermask"
    PERFORMER "Powerwolf"
    INDEX 01 18:02:31
  TRACK 07 AUDIO
    TITLE "Vampires Don't Die"
    PERFORMER "Powerwolf"
    INDEX 00 22:36:23
    INDEX 01 22:37:37
  TRACK 08 AUDIO
    TITLE "When The Moon Shines Red"
    PERFORMER "Powerwolf"
    INDEX 00 25:46:00
    INDEX 01 25:46:28
  TRACK 09 AUDIO
    TITLE "Mother Mary Is A Bird Of Prey"
    PERFORMER "Powerwolf"
    INDEX 00 30:10:74
    INDEX 01 30:11:33
  TRACK 10 AUDIO
    TITLE "Tiger Of Sabrod"
    PERFORMER "Powerwolf"
    INDEX 00 33:26:36
    INDEX 01 33:27:52
  TRACK 11 AUDIO
    TITLE "Lupus Dei"
    PERFORMER "Powerwolf"
    INDEX 01 37:20:73

2009 - Bible of the Beast | 00:47:45

Лейбл издания: Blade Records
Номер по каталогу: 3984-14734-2


01.Opening: Prelude To Purgatory (01:14)
02.Raise Your Fist Evangelist (04:00)
03.Moscow After Dark (03:15)
04.Panic In The Pentragram (05:15)
05.Catholic In The Morning... Satanist At Night (03:58)
06.Seven Deadly Saints (03:36)
07.Werewolves Of Armenia (03:55)
08.We Take The Church By Storm (03:55)
09.Resurrection By Erection (03:51)
10.Midnight Messiah (04:13)
11.St. Satans Day (04:31)
12.Wolves Against The World (06:05)

лог создания рипа

Exact Audio Copy V1.0 beta 3 from 29. August 2011
EAC extraction logfile from 31. March 2014, 18:43
Powerwolf / Bible Of The Beast
Used drive  : _NEC    DVD_RW ND-4571A   Adapter: 0  ID: 0
Read mode               : Secure
Utilize accurate stream : Yes
Defeat audio cache      : Yes
Make use of C2 pointers : No
Read offset correction                      : 48
Overread into Lead-In and Lead-Out          : No
Fill up missing offset samples with silence : Yes
Delete leading and trailing silent blocks   : No
Null samples used in CRC calculations       : Yes
Used interface                              : Native Win32 interface for Win NT & 2000
Used output format : Internal WAV Routines
Sample format      : 44.100 Hz; 16 Bit; Stereo
TOC of the extracted CD
     Track |   Start  |  Length  | Start sector | End sector
    ---------------------------------------------------------
        1  |  0:00.00 |  1:13.61 |         0    |     5535
        2  |  1:13.61 |  3:59.61 |      5536    |    23521
        3  |  5:13.47 |  3:14.42 |     23522    |    38113
        4  |  8:28.14 |  5:14.41 |     38114    |    61704
        5  | 13:42.55 |  3:57.50 |     61705    |    79529
        6  | 17:40.30 |  3:35.45 |     79530    |    95699
        7  | 21:16.00 |  3:54.53 |     95700    |   113302
        8  | 25:10.53 |  3:54.54 |    113303    |   130906
        9  | 29:05.32 |  3:50.53 |    130907    |   148209
       10  | 32:56.10 |  4:12.55 |    148210    |   167164
       11  | 37:08.65 |  4:30.54 |    167165    |   187468
       12  | 41:39.44 |  6:04.49 |    187469    |   214817
Range status and errors
Selected range
     Filename D:\EAC\vknish\Powerwolf - Bible Of The Beast.wav
     Peak level 100.0 %
     Extraction speed 4.1 X
     Range quality 100.0 %
     Test CRC DDF95378
     Copy CRC DDF95378
     Copy OK
No errors occurred
AccurateRip summary
Track  1  accurately ripped (confidence 32)  [41BE918C]  (AR v2)
Track  2  accurately ripped (confidence 30)  [E007E612]  (AR v2)
Track  3  accurately ripped (confidence 31)  [301E4989]  (AR v2)
Track  4  accurately ripped (confidence 30)  [015BD3E0]  (AR v2)
Track  5  accurately ripped (confidence 30)  [20B0BFA1]  (AR v2)
Track  6  accurately ripped (confidence 30)  [503A9FB3]  (AR v2)
Track  7  accurately ripped (confidence 30)  [671BC94B]  (AR v2)
Track  8  accurately ripped (confidence 31)  [1812FB57]  (AR v2)
Track  9  accurately ripped (confidence 30)  [EFE5BED6]  (AR v2)
Track 10  accurately ripped (confidence 30)  [30451699]  (AR v2)
Track 11  accurately ripped (confidence 31)  [8B5254CB]  (AR v2)
Track 12  accurately ripped (confidence 30)  [E7874691]  (AR v2)
All tracks accurately ripped
End of status report
---- CUETools DB Plugin V2.1.3
[CTDB TOCID: DC4umN3IMV9qfr61GNlZIeqv_PY-] found, Submit result: DC4umN3IMV9qfr61GNlZIeqv_PY- has been confirmed
[151b8802] (43/43) Accurately ripped

содержание индексной карты *cue

REM GENRE "Power Metal"
REM DATE 2009
REM DISCID 8A0B300C
REM COMMENT "ExactAudioCopy v1.0b3"
PERFORMER "Powerwolf"
TITLE "Bible Of The Beast"
FILE "Powerwolf - Bible Of The Beast.flac" WAVE
  TRACK 01 AUDIO
    TITLE "Opening: Prelude To Purgatory"
    PERFORMER "Powerwolf"
    INDEX 01 00:00:00
  TRACK 02 AUDIO
    TITLE "Raise Your Fist Evangelist"
    PERFORMER "Powerwolf"
    INDEX 01 01:13:61
  TRACK 03 AUDIO
    TITLE "Moscow After Dark"
    PERFORMER "Powerwolf"
    INDEX 00 05:12:73
    INDEX 01 05:13:47
  TRACK 04 AUDIO
    TITLE "Panic In The Pentragram"
    PERFORMER "Powerwolf"
    INDEX 01 08:28:14
  TRACK 05 AUDIO
    TITLE "Catholic In The Morning... Satanist At Night"
    PERFORMER "Powerwolf"
    INDEX 00 13:41:07
    INDEX 01 13:42:55
  TRACK 06 AUDIO
    TITLE "Seven Deadly Saints"
    PERFORMER "Powerwolf"
    INDEX 00 17:39:51
    INDEX 01 17:40:30
  TRACK 07 AUDIO
    TITLE "Werewolves Of Armenia"
    PERFORMER "Powerwolf"
    INDEX 00 21:10:01
    INDEX 01 21:16:00
  TRACK 08 AUDIO
    TITLE "We Take The Church By Storm"
    PERFORMER "Powerwolf"
    INDEX 00 25:10:24
    INDEX 01 25:10:53
  TRACK 09 AUDIO
    TITLE "Resurrection By Erection"
    PERFORMER "Powerwolf"
    INDEX 01 29:05:32
  TRACK 10 AUDIO
    TITLE "Midnight Messiah"
    PERFORMER "Powerwolf"
    INDEX 00 32:54:15
    INDEX 01 32:56:10
  TRACK 11 AUDIO
    TITLE "St. Satans Day"
    PERFORMER "Powerwolf"
    INDEX 00 37:07:19
    INDEX 01 37:08:65
  TRACK 12 AUDIO
    TITLE "Wolves Against The World"
    PERFORMER "Powerwolf"
    INDEX 01 41:39:44

2011 - Blood of the Saints (2 CD)

CD 1 | 00:41:52

Лейбл издания: Blade Records
Номер по каталогу: 3984-15009-0


01.Agnus Dei (00:49)
02.Sanctified with Dynamite (04:26)
03.We drink your Blood (03:43)
04.Murder at Midnight (04:48)
05.All we need is Blood (03:37)
06.Dead Boys don't Cry (03:26)
07.Son of a Wolf (04:00)
08.Night of the Werewolves (04:31)
09.Phantom of the Funeral (03:10)
10.Die, Die, Crucified (03:01)
11.Ira Sancti (When the Saints are going Wild) (06:26)

лог создания рипа

Exact Audio Copy V1.0 beta 3 from 29. August 2011
EAC extraction logfile from 21. February 2014, 18:06
Powerwolf / Blood of the Saints (CD1)
Used drive  : _NEC    DVD_RW ND-4571A   Adapter: 0  ID: 0
Read mode               : Secure
Utilize accurate stream : Yes
Defeat audio cache      : Yes
Make use of C2 pointers : No
Read offset correction                      : 48
Overread into Lead-In and Lead-Out          : No
Fill up missing offset samples with silence : Yes
Delete leading and trailing silent blocks   : No
Null samples used in CRC calculations       : Yes
Used interface                              : Native Win32 interface for Win NT & 2000
Used output format : Internal WAV Routines
Sample format      : 44.100 Hz; 16 Bit; Stereo
TOC of the extracted CD
     Track |   Start  |  Length  | Start sector | End sector
    ---------------------------------------------------------
        1  |  0:00.00 |  0:48.53 |         0    |     3652
        2  |  0:48.53 |  4:25.54 |      3653    |    23581
        3  |  5:14.32 |  3:42.42 |     23582    |    40273
        4  |  8:56.74 |  4:47.31 |     40274    |    61829
        5  | 13:44.30 |  3:36.15 |     61830    |    78044
        6  | 17:20.45 |  3:25.24 |     78045    |    93443
        7  | 20:45.69 |  3:59.37 |     93444    |   111405
        8  | 24:45.31 |  4:30.53 |    111406    |   131708
        9  | 29:16.09 |  3:09.32 |    131709    |   145915
       10  | 32:25.41 |  3:00.49 |    145916    |   159464
       11  | 35:26.15 |  6:25.30 |    159465    |   188369
Range status and errors
Selected range
     Filename D:\EAC\vknish\Powerwolf - Blood of the Saints (CD1).wav
     Peak level 99.9 %
     Extraction speed 4.4 X
     Range quality 99.9 %
     Test CRC FA95BAF8
     Copy CRC FA95BAF8
     Copy OK
No errors occurred
AccurateRip summary
Track  1  accurately ripped (confidence 8)  [8CE4C534]  (AR v2)
Track  2  accurately ripped (confidence 8)  [5092F790]  (AR v2)
Track  3  accurately ripped (confidence 8)  [C1F801DA]  (AR v2)
Track  4  accurately ripped (confidence 8)  [5415EE37]  (AR v2)
Track  5  accurately ripped (confidence 8)  [ACFF8624]  (AR v2)
Track  6  accurately ripped (confidence 8)  [6C0DB4E9]  (AR v2)
Track  7  accurately ripped (confidence 8)  [C7E820FC]  (AR v2)
Track  8  accurately ripped (confidence 8)  [5AFAD22C]  (AR v2)
Track  9  accurately ripped (confidence 8)  [85D39E1D]  (AR v2)
Track 10  accurately ripped (confidence 8)  [DDC32611]  (AR v2)
Track 11  accurately ripped (confidence 8)  [9D9E5611]  (AR v2)
All tracks accurately ripped
End of status report
---- CUETools DB Plugin V2.1.3
[CTDB TOCID: TUVlBFrrUIYZ1biq1WFdUUIgcu0-] found, Submit result: TUVlBFrrUIYZ1biq1WFdUUIgcu0- has been confirmed
[9240a6a2] (46/47) Accurately ripped
[4e66d8ba] (01/47) No match

содержание индексной карты *cue

REM GENRE "Power Metal"
REM DATE 2011
REM DISCID 9109CF0B
REM COMMENT "ExactAudioCopy v1.0b3"
PERFORMER "Powerwolf"
TITLE "Blood of the Saints (CD1)"
FILE "Powerwolf - Blood of the Saints (CD1).flac" WAVE
  TRACK 01 AUDIO
    TITLE "Agnus Dei"
    PERFORMER "Powerwolf"
    INDEX 01 00:00:00
  TRACK 02 AUDIO
    TITLE "Sanctified with Dynamite"
    PERFORMER "Powerwolf"
    INDEX 01 00:48:53
  TRACK 03 AUDIO
    TITLE "We drink your Blood"
    PERFORMER "Powerwolf"
    INDEX 00 05:12:60
    INDEX 01 05:14:32
  TRACK 04 AUDIO
    TITLE "Murder at Midnight"
    PERFORMER "Powerwolf"
    INDEX 01 08:56:74
  TRACK 05 AUDIO
    TITLE "All we need is Blood"
    PERFORMER "Powerwolf"
    INDEX 00 13:42:66
    INDEX 01 13:44:30
  TRACK 06 AUDIO
    TITLE "Dead Boys don't Cry"
    PERFORMER "Powerwolf"
    INDEX 00 17:19:26
    INDEX 01 17:20:45
  TRACK 07 AUDIO
    TITLE "Son of a Wolf"
    PERFORMER "Powerwolf"
    INDEX 00 20:44:44
    INDEX 01 20:45:69
  TRACK 08 AUDIO
    TITLE "Night of the Werewolves"
    PERFORMER "Powerwolf"
    INDEX 00 24:43:69
    INDEX 01 24:45:31
  TRACK 09 AUDIO
    TITLE "Phantom of the Funeral"
    PERFORMER "Powerwolf"
    INDEX 00 29:14:21
    INDEX 01 29:16:09
  TRACK 10 AUDIO
    TITLE "Die, Die, Crucified"
    PERFORMER "Powerwolf"
    INDEX 00 32:23:55
    INDEX 01 32:25:41
  TRACK 11 AUDIO
    TITLE "Ira Sancti (When the Saints are going Wild)"
    PERFORMER "Powerwolf"
    INDEX 00 35:24:15
    INDEX 01 35:26:15

CD 2 The Sacrilege Symphony (And Still The Orchestra Prays | 00:25:48

Лейбл издания: Blade Records
Номер по каталогу: 3984-15009-0


01.Raise Your Fist, Evangelist (Orchestral Version) (04:31)
02.In Blood We Trust (Orchestral Version) (04:51)
03.Sanctified With Dynamite (Orchestral Version) (05:27)
04.Ira Sancti (When The Saints Are Going Wild) (05:28)
05.Moscow After Dark (Orchestral Version) (05:32)

лог создания рипа

Exact Audio Copy V1.0 beta 3 from 29. August 2011
EAC extraction logfile from 21. February 2014, 18:23
Powerwolf / The Sacrilege Symphony (And Still The Orchestra Prays
Used drive  : _NEC    DVD_RW ND-4571A   Adapter: 0  ID: 0
Read mode               : Secure
Utilize accurate stream : Yes
Defeat audio cache      : Yes
Make use of C2 pointers : No
Read offset correction                      : 48
Overread into Lead-In and Lead-Out          : No
Fill up missing offset samples with silence : Yes
Delete leading and trailing silent blocks   : No
Null samples used in CRC calculations       : Yes
Used interface                              : Native Win32 interface for Win NT & 2000
Used output format : Internal WAV Routines
Sample format      : 44.100 Hz; 16 Bit; Stereo
TOC of the extracted CD
     Track |   Start  |  Length  | Start sector | End sector
    ---------------------------------------------------------
        1  |  0:00.00 |  4:30.48 |         0    |    20297
        2  |  4:30.48 |  4:50.27 |     20298    |    42074
        3  |  9:21.00 |  5:26.17 |     42075    |    66541
        4  | 14:47.17 |  5:27.74 |     66542    |    91140
        5  | 20:15.16 |  5:31.69 |     91141    |   116034
Range status and errors
Selected range
     Filename D:\EAC\vknish\Powerwolf - The Sacrilege Symphony (And Still The Orchestra Prays.wav
     Peak level 98.8 %
     Extraction speed 3.8 X
     Range quality 99.9 %
     Test CRC AB16F9B4
     Copy CRC AB16F9B4
     Copy OK
No errors occurred
AccurateRip summary
Track  1  accurately ripped (confidence 6)  [4804B107]  (AR v2)
Track  2  accurately ripped (confidence 6)  [B90B766D]  (AR v2)
Track  3  accurately ripped (confidence 6)  [F603A3F2]  (AR v2)
Track  4  accurately ripped (confidence 6)  [B4EB2896]  (AR v2)
Track  5  accurately ripped (confidence 6)  [48E09D8B]  (AR v2)
All tracks accurately ripped
End of status report
---- CUETools DB Plugin V2.1.3
[CTDB TOCID: hy6LfYffT4I7VzfQ1eD_xgjkJQw-] found, Submit result: hy6LfYffT4I7VzfQ1eD_xgjkJQw- has been confirmed
[2e804cf6] (5/5) Accurately ripped

содержание индексной карты *cue

REM GENRE Klassik
REM DATE 2011
REM DISCID 3F060B05
REM COMMENT "ExactAudioCopy v1.0b3"
PERFORMER "Powerwolf"
TITLE "The Sacrilege Symphony (And Still The Orchestra Prays"
FILE "Powerwolf - The Sacrilege Symphony (And Still The Orchestra Prays.flac" WAVE
  TRACK 01 AUDIO
    TITLE "Raise Your Fist, Evangelist (Orchestral Version)"
    PERFORMER "Powerwolf"
    INDEX 01 00:00:00
  TRACK 02 AUDIO
    TITLE "In Blood We Trust (Orchestral Version)"
    PERFORMER "Powerwolf"
    INDEX 01 04:30:48
  TRACK 03 AUDIO
    TITLE "Sanctified With Dynamite (Orchestral Version)"
    PERFORMER "Powerwolf"
    INDEX 01 09:21:00
  TRACK 04 AUDIO
    TITLE "Ira Sancti (When The Saints Are Going Wild)"
    PERFORMER "Powerwolf"
    INDEX 01 14:47:17
  TRACK 05 AUDIO
    TITLE "Moscow After Dark (Orchestral Version)"
    PERFORMER "Powerwolf"
    INDEX 01 20:15:16
--

Дополнительная информация:

Powerwolf — немецкая пауэр-хэви-метал-группа, использующая в своём творчестве христианские мотивы, мрачные хоровые вставки и мощные органные партии. Музыканты утверждают, что они не играют христианский рок, но называют себя религиозными людьми. Однако, по утверждению Аттилы Дорна, в таких песнях, как «Panic in the Pentagram», «Coleus Sanctus», «Resurrection by Erection», коллектив иронично высмеивает то сатанизм, то христианство, называя себя «наблюдателями, а не борцами на религиозной сцене».

Состав:

Attila Dorn — vokals
Matthew Greywolf (Benjamin Buss) — Guitars
Charles Greywolf — Bass
Stefane Funebre — Drums
Falk Maria Schlegel — Keyboards, орган
--

Создавать темы 07-Янв-2016 00:46 (спустя 2 минуты)

2012 - Alive in the Night (Live) | 00:46:36

Лейбл издания: Blade Records
Номер по каталогу: 5289270


01.Lupus Daemonis (Intro) (01:21)
02.Sanctified With Dynamite (04:54)
03.Prayer In The Dark (04:38)
04.Raise Your Fist, Evangelist (04:36)
05.We Drink Your Blood (04:33)
06.Werewolves Of Armenia (04:14)
07.Dead Boys Don't Cry (04:04)
08.Resurrection By Erection (05:26)
09.Saturday Satan (05:56)
10.Lupus Dei (07:00)

лог создания рипа

Exact Audio Copy V1.0 beta 3 from 29. August 2011
EAC extraction logfile from 10. March 2014, 18:09
Powerwolf / Alive In The Night (Live)
Used drive  : _NEC    DVD_RW ND-4571A   Adapter: 0  ID: 0
Read mode               : Secure
Utilize accurate stream : Yes
Defeat audio cache      : Yes
Make use of C2 pointers : No
Read offset correction                      : 48
Overread into Lead-In and Lead-Out          : No
Fill up missing offset samples with silence : Yes
Delete leading and trailing silent blocks   : No
Null samples used in CRC calculations       : Yes
Used interface                              : Native Win32 interface for Win NT & 2000
Used output format : Internal WAV Routines
Sample format      : 44.100 Hz; 16 Bit; Stereo
TOC of the extracted CD
     Track |   Start  |  Length  | Start sector | End sector
    ---------------------------------------------------------
        1  |  0:00.00 |  1:20.49 |         0    |     6048
        2  |  1:20.49 |  4:53.33 |      6049    |    28056
        3  |  6:14.07 |  4:37.09 |     28057    |    48840
        4  | 10:51.16 |  4:35.55 |     48841    |    69520
        5  | 15:26.71 |  4:32.26 |     69521    |    89946
        6  | 19:59.22 |  4:13.20 |     89947    |   108941
        7  | 24:12.42 |  4:03.50 |    108942    |   127216
        8  | 28:16.17 |  5:25.32 |    127217    |   151623
        9  | 33:41.49 |  5:55.22 |    151624    |   178270
       10  | 39:36.71 |  6:59.04 |    178271    |   209699
Range status and errors
Selected range
     Filename D:\EAC\vknish\Powerwolf - Alive In The Night (Live).wav
     Peak level 98.8 %
     Extraction speed 4.4 X
     Range quality 100.0 %
     Test CRC 9F6F71EE
     Copy CRC 9F6F71EE
     Copy OK
No errors occurred
AccurateRip summary
Track  1  accurately ripped (confidence 17)  [15566A9A]  (AR v2)
Track  2  accurately ripped (confidence 17)  [B5B91B93]  (AR v2)
Track  3  accurately ripped (confidence 17)  [83647FA1]  (AR v2)
Track  4  accurately ripped (confidence 17)  [F217FA20]  (AR v2)
Track  5  accurately ripped (confidence 17)  [1707516C]  (AR v2)
Track  6  accurately ripped (confidence 17)  [55070731]  (AR v2)
Track  7  accurately ripped (confidence 17)  [48C75814]  (AR v2)
Track  8  accurately ripped (confidence 17)  [F31AB1AA]  (AR v2)
Track  9  accurately ripped (confidence 17)  [3B4731AA]  (AR v2)
Track 10  accurately ripped (confidence 17)  [C1945C54]  (AR v2)
All tracks accurately ripped
End of status report
---- CUETools DB Plugin V2.1.3
[CTDB TOCID: kElQsPsAAVF5r1goK.KkUup1pNY-] database access error: В документе XML (1, 1) присутствует ошибка.

содержание индексной карты *cue

REM GENRE "Power Metal"
REM DATE 2012
REM DISCID 820AEC0A
REM COMMENT "ExactAudioCopy v1.0b3"
PERFORMER "Powerwolf"
TITLE "Alive In The Night (Live)"
FILE "Powerwolf - Alive In The Night (Live).flac" WAVE
  TRACK 01 AUDIO
    TITLE "Lupus Daemonis (Intro)"
    PERFORMER "Powerwolf"
    FLAGS DCP
    INDEX 01 00:00:00
  TRACK 02 AUDIO
    TITLE "Sanctified With Dynamite"
    PERFORMER "Powerwolf"
    FLAGS DCP
    INDEX 01 01:20:49
  TRACK 03 AUDIO
    TITLE "Prayer In The Dark"
    PERFORMER "Powerwolf"
    FLAGS DCP
    INDEX 00 06:14:06
    INDEX 01 06:14:07
  TRACK 04 AUDIO
    TITLE "Raise Your Fist, Evangelist"
    PERFORMER "Powerwolf"
    FLAGS DCP
    INDEX 00 10:51:15
    INDEX 01 10:51:16
  TRACK 05 AUDIO
    TITLE "We Drink Your Blood"
    PERFORMER "Powerwolf"
    FLAGS DCP
    INDEX 00 15:26:70
    INDEX 01 15:26:71
  TRACK 06 AUDIO
    TITLE "Werewolves Of Armenia"
    PERFORMER "Powerwolf"
    FLAGS DCP
    INDEX 00 19:59:21
    INDEX 01 19:59:22
  TRACK 07 AUDIO
    TITLE "Dead Boys Don't Cry"
    PERFORMER "Powerwolf"
    FLAGS DCP
    INDEX 00 24:12:41
    INDEX 01 24:12:42
  TRACK 08 AUDIO
    TITLE "Resurrection By Erection"
    PERFORMER "Powerwolf"
    FLAGS DCP
    INDEX 01 28:16:17
  TRACK 09 AUDIO
    TITLE "Saturday Satan"
    PERFORMER "Powerwolf"
    FLAGS DCP
    INDEX 00 33:41:48
    INDEX 01 33:41:49
  TRACK 10 AUDIO
    TITLE "Lupus Dei"
    PERFORMER "Powerwolf"
    FLAGS DCP
    INDEX 00 39:36:70
    INDEX 01 39:36:71

2013 - Preachers Of The Night (2CD Earbook)

CD 1 | 00:45:39

Лейбл издания: Napalm Records
Номер по каталогу: NPR 492


01.Amen & Attack (03:55)
02.Secrets Of The Sacristy (04:08)
03.Coleus Sanctus (03:46)
04.Sacred & Wild (03:41)
05.Kreuzfeuer (03:48)
06.Cardinal Sin (03:48)
07.In The Name Of God (Deus Vult) (03:16)
08.Nochnoi Dozor (03:46)
09.Lust For Blood (03:55)
10.Extatum Et Oratum (03:57)
11.Last Of The Living Dead (07:43)

лог создания рипа

Exact Audio Copy V1.0 beta 3 from 29. August 2011
EAC extraction logfile from 31. March 2014, 19:41
Powerwolf / Preachers Of The Night
Used drive  : _NEC    DVD_RW ND-4571A   Adapter: 0  ID: 0
Read mode               : Secure
Utilize accurate stream : Yes
Defeat audio cache      : Yes
Make use of C2 pointers : No
Read offset correction                      : 48
Overread into Lead-In and Lead-Out          : No
Fill up missing offset samples with silence : Yes
Delete leading and trailing silent blocks   : No
Null samples used in CRC calculations       : Yes
Used interface                              : Native Win32 interface for Win NT & 2000
Used output format : Internal WAV Routines
Sample format      : 44.100 Hz; 16 Bit; Stereo
TOC of the extracted CD
     Track |   Start  |  Length  | Start sector | End sector
    ---------------------------------------------------------
        1  |  0:00.00 |  3:54.52 |         0    |    17601
        2  |  3:54.52 |  4:07.67 |     17602    |    36193
        3  |  8:02.44 |  3:45.27 |     36194    |    53095
        4  | 11:47.71 |  3:40.69 |     53096    |    69664
        5  | 15:28.65 |  3:47.35 |     69665    |    86724
        6  | 19:16.25 |  3:47.03 |     86725    |   103752
        7  | 23:03.28 |  3:15.69 |    103753    |   118446
        8  | 26:19.22 |  3:45.51 |    118447    |   135372
        9  | 30:04.73 |  3:54.46 |    135373    |   152968
       10  | 33:59.44 |  3:56.04 |    152969    |   170672
       11  | 37:55.48 |  7:42.38 |    170673    |   205360
Range status and errors
Selected range
     Filename D:\EAC\vknish\Powerwolf - Preachers Of The Night.wav
     Peak level 100.0 %
     Extraction speed 4.6 X
     Range quality 100.0 %
     Test CRC 33F2A35A
     Copy CRC 33F2A35A
     Copy OK
No errors occurred
AccurateRip summary
Track  1  accurately ripped (confidence 37)  [8F4D2E1B]  (AR v2)
Track  2  accurately ripped (confidence 37)  [4826BC22]  (AR v2)
Track  3  accurately ripped (confidence 37)  [80E45396]  (AR v2)
Track  4  accurately ripped (confidence 36)  [6149782D]  (AR v2)
Track  5  accurately ripped (confidence 36)  [9F39DC2D]  (AR v2)
Track  6  accurately ripped (confidence 37)  [63A477F8]  (AR v2)
Track  7  accurately ripped (confidence 37)  [6D60F4DE]  (AR v2)
Track  8  accurately ripped (confidence 37)  [79143317]  (AR v2)
Track  9  accurately ripped (confidence 37)  [1F832A7E]  (AR v2)
Track 10  accurately ripped (confidence 37)  [4AF0E8C1]  (AR v2)
Track 11  accurately ripped (confidence 36)  [AD93484A]  (AR v2)
All tracks accurately ripped
End of status report
---- CUETools DB Plugin V2.1.3
[CTDB TOCID: RZHrBGIYuFBZwytdosHITNEkyn0-] found, Submit result: RZHrBGIYuFBZwytdosHITNEkyn0- has been confirmed
[58d336bb] (52/52) Accurately ripped

содержание индексной карты *cue

REM GENRE "Power Metal"
REM DATE 2013
REM DISCID 900AB20B
REM COMMENT "ExactAudioCopy v1.0b3"
PERFORMER "Powerwolf"
TITLE "Preachers Of The Night"
FILE "Powerwolf - Preachers Of The Night.flac" WAVE
  TRACK 01 AUDIO
    TITLE "Amen & Attack"
    PERFORMER "Powerwolf"
    INDEX 01 00:00:00
  TRACK 02 AUDIO
    TITLE "Secrets Of The Sacristy"
    PERFORMER "Powerwolf"
    INDEX 01 03:54:52
  TRACK 03 AUDIO
    TITLE "Coleus Sanctus"
    PERFORMER "Powerwolf"
    INDEX 01 08:02:44
  TRACK 04 AUDIO
    TITLE "Sacred & Wild"
    PERFORMER "Powerwolf"
    INDEX 01 11:47:71
  TRACK 05 AUDIO
    TITLE "Kreuzfeuer"
    PERFORMER "Powerwolf"
    INDEX 01 15:28:65
  TRACK 06 AUDIO
    TITLE "Cardinal Sin"
    PERFORMER "Powerwolf"
    INDEX 01 19:16:25
  TRACK 07 AUDIO
    TITLE "In The Name Of God (Deus Vult)"
    PERFORMER "Powerwolf"
    INDEX 01 23:03:28
  TRACK 08 AUDIO
    TITLE "Nochnoi Dozor"
    PERFORMER "Powerwolf"
    INDEX 01 26:19:22
  TRACK 09 AUDIO
    TITLE "Lust For Blood"
    PERFORMER "Powerwolf"
    INDEX 01 30:04:73
  TRACK 10 AUDIO
    TITLE "Extatum Et Oratum"
    PERFORMER "Powerwolf"
    INDEX 01 33:59:44
  TRACK 11 AUDIO
    TITLE "Last Of The Living Dead"
    PERFORMER "Powerwolf"
    INDEX 01 37:55:48

CD 2 - The Sacrilege Symphony II - Nightshift For Choir And Orchestra | 00:21:29

Лейбл издания: Napalm Records
Номер по каталогу: NPR 492


01.Amen & Attack (orchestral) (04:56)
02.Coleus Sanctus (orchestral) (05:09)
03.Kreuzfeuer (orchestral) (06:04)
04.Cardinal Sin (orchestral) (05:22)

лог создания рипа

Exact Audio Copy V1.0 beta 3 from 29. August 2011
EAC extraction logfile from 31. March 2014, 19:59
Powerwolf / The Sacrilege Symphony II - Nightshift For Choir And Orchestra
Used drive  : _NEC    DVD_RW ND-4571A   Adapter: 0  ID: 0
Read mode               : Secure
Utilize accurate stream : Yes
Defeat audio cache      : Yes
Make use of C2 pointers : No
Read offset correction                      : 48
Overread into Lead-In and Lead-Out          : No
Fill up missing offset samples with silence : Yes
Delete leading and trailing silent blocks   : No
Null samples used in CRC calculations       : Yes
Used interface                              : Native Win32 interface for Win NT & 2000
Used output format : Internal WAV Routines
Sample format      : 44.100 Hz; 16 Bit; Stereo
TOC of the extracted CD
     Track |   Start  |  Length  | Start sector | End sector
    ---------------------------------------------------------
        1  |  0:00.00 |  4:55.06 |         0    |    22130
        2  |  4:55.06 |  5:08.34 |     22131    |    45264
        3  | 10:03.40 |  6:03.26 |     45265    |    72515
        4  | 16:06.66 |  5:21.18 |     72516    |    96608
Range status and errors
Selected range
     Filename D:\EAC\vknish\Powerwolf - The Sacrilege Symphony II - Nightshift For Choir And Orchestra.wav
     Peak level 99.0 %
     Extraction speed 3.6 X
     Range quality 100.0 %
     Test CRC 8A1E61C1
     Copy CRC 8A1E61C1
     Copy OK
No errors occurred
AccurateRip summary
Track  1  accurately ripped (confidence 23)  [AFE23BDA]  (AR v2)
Track  2  accurately ripped (confidence 23)  [D1680A02]  (AR v2)
Track  3  accurately ripped (confidence 23)  [63147FDE]  (AR v2)
Track  4  accurately ripped (confidence 23)  [4A260197]  (AR v2)
All tracks accurately ripped
End of status report
---- CUETools DB Plugin V2.1.3
[CTDB TOCID: ObE5S7fgfyXZ2gdvymtmSc3QhkA-] found, Submit result: ObE5S7fgfyXZ2gdvymtmSc3QhkA- has been confirmed
[04b3473b] (32/32) Accurately ripped

содержание индексной карты *cue

REM GENRE "Power Metal"
REM DATE 2013
REM DISCID 36050804
REM COMMENT "ExactAudioCopy v1.0b3"
PERFORMER "Powerwolf"
TITLE "The Sacrilege Symphony II - Nightshift For Choir And Orchestra"
FILE "Powerwolf - The Sacrilege Symphony II - Nightshift For Choir And Orchestra.flac" WAVE
  TRACK 01 AUDIO
    TITLE "Amen & Attack (orchestral)"
    PERFORMER "Powerwolf"
    INDEX 01 00:00:00
  TRACK 02 AUDIO
    TITLE "Coleus Sanctus (orchestral)"
    PERFORMER "Powerwolf"
    INDEX 00 04:53:23
    INDEX 01 04:55:06
  TRACK 03 AUDIO
    TITLE "Kreuzfeuer (orchestral)"
    PERFORMER "Powerwolf"
    INDEX 00 10:01:22
    INDEX 01 10:03:40
  TRACK 04 AUDIO
    TITLE "Cardinal Sin (orchestral)"
    PERFORMER "Powerwolf"
    INDEX 00 16:06:05
    INDEX 01 16:06:66

2013 - The Rockhard Sacrament (EP) | 00:27:49

Лейбл издания: Napalm Records
Номер по каталогу: AD14202-01


01.Amen & Attack (03:55)
02.In The Name Of God (03:16)
03.Headless Cross (06:10)
04.Nightcrawler (05:43)
05.Living On A Nightmare (03:52)
06.Amen & Attack (Orchestra Version) (04:55)

лог создания рипа

Exact Audio Copy V1.0 beta 3 from 29. August 2011
EAC extraction logfile from 5. February 2014, 18:24
Powerwolf / The Rockhard Sacrament
Used drive  : _NEC    DVD_RW ND-4571A   Adapter: 0  ID: 0
Read mode               : Secure
Utilize accurate stream : Yes
Defeat audio cache      : Yes
Make use of C2 pointers : No
Read offset correction                      : 48
Overread into Lead-In and Lead-Out          : No
Fill up missing offset samples with silence : Yes
Delete leading and trailing silent blocks   : No
Null samples used in CRC calculations       : Yes
Used interface                              : Native Win32 interface for Win NT & 2000
Used output format : Internal WAV Routines
Sample format      : 44.100 Hz; 16 Bit; Stereo
TOC of the extracted CD
     Track |   Start  |  Length  | Start sector | End sector
    ---------------------------------------------------------
        1  |  0:00.00 |  3:54.51 |         0    |    17600
        2  |  3:54.51 |  3:15.23 |     17601    |    32248
        3  |  7:09.74 |  6:09.53 |     32249    |    59976
        4  | 13:19.52 |  5:42.58 |     59977    |    85684
        5  | 19:02.35 |  3:51.20 |     85685    |   103029
        6  | 22:53.55 |  4:54.73 |    103030    |   125152
Range status and errors
Selected range
     Filename D:\EAC\vknish\Powerwolf - The Rockhard Sacrament.wav
     Peak level 100.0 %
     Extraction speed 4.0 X
     Range quality 99.9 %
     Test CRC 6C12B548
     Copy CRC 6C12B548
     Copy OK
No errors occurred
AccurateRip summary
Track  1  accurately ripped (confidence 13)  [24A6B973]  (AR v2)
Track  2  accurately ripped (confidence 13)  [9E3D299E]  (AR v2)
Track  3  accurately ripped (confidence 13)  [25AEA8AF]  (AR v2)
Track  4  accurately ripped (confidence 13)  [B2A30B3D]  (AR v2)
Track  5  accurately ripped (confidence 12)  [B61ABC1F]  (AR v2)
Track  6  accurately ripped (confidence 12)  [5F6366CD]  (AR v2)
All tracks accurately ripped
End of status report
---- CUETools DB Plugin V2.1.3
[CTDB TOCID: .4L4HnYCnv085x6QCGtIpAe3gLI-] found, Submit result: .4L4HnYCnv085x6QCGtIpAe3gLI- has been confirmed
[75668315] (16/16) Accurately ripped

содержание индексной карты *cue

REM GENRE "Heavy Metal"
REM DATE 2013
REM DISCID 38068406
REM COMMENT "ExactAudioCopy v1.0b3"
PERFORMER "Powerwolf"
TITLE "The Rockhard Sacrament"
FILE "Powerwolf - The Rockhard Sacrament.flac" WAVE
  TRACK 01 AUDIO
    TITLE "Amen & Attack"
    PERFORMER "Powerwolf"
    FLAGS DCP
    INDEX 01 00:00:00
  TRACK 02 AUDIO
    TITLE "In The Name Of God"
    PERFORMER "Powerwolf"
    FLAGS DCP
    INDEX 01 03:54:51
  TRACK 03 AUDIO
    TITLE "Headless Cross"
    PERFORMER "Powerwolf"
    FLAGS DCP
    INDEX 01 07:09:74
  TRACK 04 AUDIO
    TITLE "Nightcrawler"
    PERFORMER "Powerwolf"
    FLAGS DCP
    INDEX 01 13:19:52
  TRACK 05 AUDIO
    TITLE "Living On A Nightmare"
    PERFORMER "Powerwolf"
    FLAGS DCP
    INDEX 01 19:02:35
  TRACK 06 AUDIO
    TITLE "Amen & Attack (Orchestra Version)"
    PERFORMER "Powerwolf"
    FLAGS DCP
    INDEX 00 22:53:07
    INDEX 01 22:53:55

Создавать темы 07-Янв-2016 00:47 (спустя 48 секунд)

2014 - The History of Heresy I-2004-2008 (2CD)

CD 1 - Return In Bloodred | 00:54:09

Лейбл издания: Blade Records
Номер по каталогу: 3984-15292-2


01.Mr. Sinister (04:40)
02.Kiss Of The Cobra King (04:01)
03.We Came To Take Your Souls (04:33)
04.Black Mass Hysteria (04:13)
05.Demons & Diamonds (03:39)
06.Montecore (05:19)
07.The Evil Made Me Do It (03:39)
08.Lucifer In Starlight (04:50)
09.Son Of The Morning Star (04:05)
10.Mr. Sinister (LIVE) Bonus Track (05:39)
11.We Came To Take Your Souls (LIVE) Bonus Track (04:09)
12.Kiss Of The Cobra King (LIVE) Bonus Track (05:27)

лог создания рипа

Exact Audio Copy V1.0 beta 3 from 29. August 2011
EAC extraction logfile from 31. May 2014, 17:34
Powerwolf / Return In Bloodred (CD1)
Used drive  : _NEC    DVD_RW ND-4571A   Adapter: 0  ID: 0
Read mode               : Secure
Utilize accurate stream : Yes
Defeat audio cache      : Yes
Make use of C2 pointers : No
Read offset correction                      : 48
Overread into Lead-In and Lead-Out          : No
Fill up missing offset samples with silence : Yes
Delete leading and trailing silent blocks   : No
Null samples used in CRC calculations       : Yes
Used interface                              : Native Win32 interface for Win NT & 2000
Used output format : Internal WAV Routines
Sample format      : 44.100 Hz; 16 Bit; Stereo
TOC of the extracted CD
     Track |   Start  |  Length  | Start sector | End sector
    ---------------------------------------------------------
        1  |  0:00.00 |  4:39.15 |         0    |    20939
        2  |  4:39.15 |  4:00.46 |     20940    |    38985
        3  |  8:39.61 |  4:32.18 |     38986    |    59403
        4  | 13:12.04 |  4:12.43 |     59404    |    78346
        5  | 17:24.47 |  3:38.59 |     78347    |    94755
        6  | 21:03.31 |  5:18.44 |     94756    |   118649
        7  | 26:22.00 |  3:38.23 |    118650    |   135022
        8  | 30:00.23 |  4:49.52 |    135023    |   156749
        9  | 34:50.00 |  4:04.63 |    156750    |   175112
       10  | 38:54.63 |  5:38.01 |    175113    |   200463
       11  | 44:32.64 |  4:08.35 |    200464    |   219098
       12  | 48:41.24 |  5:26.56 |    219099    |   243604
Range status and errors
Selected range
     Filename D:\EAC\vknish\Powerwolf - Return In Bloodred (CD1).wav
     Peak level 98.8 %
     Extraction speed 4.1 X
     Range quality 100.0 %
     Test CRC EB2CDF2C
     Copy CRC EB2CDF2C
     Copy OK
No errors occurred
AccurateRip summary
Track  1  not present in database
Track  2  not present in database
Track  3  not present in database
Track  4  not present in database
Track  5  not present in database
Track  6  not present in database
Track  7  not present in database
Track  8  not present in database
Track  9  not present in database
Track 10  not present in database
Track 11  not present in database
Track 12  not present in database
None of the tracks are present in the AccurateRip database
End of status report
---- CUETools DB Plugin V2.1.3
[CTDB TOCID: NNo.zbAUnKCF6J16JqE0IQhHfOM-] found, Submit result: already submitted
[04c25184] (1/1) Accurately ripped

содержание индексной карты *cue

REM GENRE "Power Metal"
REM DATE 2014
REM DISCID 9D0CB00C
REM COMMENT "ExactAudioCopy v1.0b3"
PERFORMER "Powerwolf"
TITLE "Return In Bloodred (CD1)"
FILE "Powerwolf - Return In Bloodred (CD1).flac" WAVE
  TRACK 01 AUDIO
    TITLE "Mr. Sinister"
    PERFORMER "Powerwolf"
    INDEX 01 00:00:00
  TRACK 02 AUDIO
    TITLE "Kiss Of The Cobra King"
    PERFORMER "Powerwolf"
    INDEX 01 04:39:15
  TRACK 03 AUDIO
    TITLE "We Came To Take Your Souls"
    PERFORMER "Powerwolf"
    INDEX 00 08:37:36
    INDEX 01 08:39:61
  TRACK 04 AUDIO
    TITLE "Black Mass Hysteria"
    PERFORMER "Powerwolf"
    INDEX 00 13:09:54
    INDEX 01 13:12:04
  TRACK 05 AUDIO
    TITLE "Demons & Diamonds"
    PERFORMER "Powerwolf"
    INDEX 00 17:22:71
    INDEX 01 17:24:47
  TRACK 06 AUDIO
    TITLE "Montecore"
    PERFORMER "Powerwolf"
    INDEX 00 21:00:73
    INDEX 01 21:03:31
  TRACK 07 AUDIO
    TITLE "The Evil Made Me Do It"
    PERFORMER "Powerwolf"
    INDEX 00 26:19:46
    INDEX 01 26:22:00
  TRACK 08 AUDIO
    TITLE "Lucifer In Starlight"
    PERFORMER "Powerwolf"
    INDEX 00 29:58:47
    INDEX 01 30:00:23
  TRACK 09 AUDIO
    TITLE "Son Of The Morning Star"
    PERFORMER "Powerwolf"
    INDEX 00 34:47:32
    INDEX 01 34:50:00
  TRACK 10 AUDIO
    TITLE "Mr. Sinister (LIVE) Bonus Track"
    PERFORMER "Powerwolf"
    INDEX 01 38:54:63
  TRACK 11 AUDIO
    TITLE "We Came To Take Your Souls (LIVE) Bonus Track"
    PERFORMER "Powerwolf"
    INDEX 01 44:32:64
  TRACK 12 AUDIO
    TITLE "Kiss Of The Cobra King (LIVE) Bonus Track"
    PERFORMER "Powerwolf"
    INDEX 01 48:41:24

CD 2 - Lupus Dei | 01:10:22

Лейбл издания: Blade Records
Номер по каталогу: 3984-15292-2


01.Lupus Demonae (intro) (01:18)
02.We Take It From the Living (04:04)
03.Prayer in the Dark (04:21)
04.Saturday Satan (05:19)
05.In Blood We Trust (03:04)
06.Behind the Leathermask (04:36)
07.Vampires Don't Die (03:09)
08.When the Moon Shines Red (04:26)
09.Mother Mary is a Bird of Prey (03:17)
10.Tiger of Sabrod (03:55)
11.Lupus Dei (06:08)
12.We Take It From The Living (LIVE) Bonus Track (04:04)
13.Prayer In The Dark (LIVE) Bonus Track (04:32)
14.Saturday Satan (LIVE) Bonus Track (05:35)
15.In Blood We Trust (LIVE) Bonus Track (03:07)
16.Mother Mary Is a Bird Of Prey (LIVE) Bonus Track (03:16)
17.Lupus Dei (LIVE) Bonus Track (06:22)

лог создания рипа

Exact Audio Copy V1.0 beta 3 from 29. August 2011
EAC extraction logfile from 31. May 2014, 17:01
Powerwolf / Lupus Dei (CD2)
Used drive  : _NEC    DVD_RW ND-4571A   Adapter: 0  ID: 0
Read mode               : Secure
Utilize accurate stream : Yes
Defeat audio cache      : Yes
Make use of C2 pointers : No
Read offset correction                      : 48
Overread into Lead-In and Lead-Out          : No
Fill up missing offset samples with silence : Yes
Delete leading and trailing silent blocks   : No
Null samples used in CRC calculations       : Yes
Used interface                              : Native Win32 interface for Win NT & 2000
Used output format : Internal WAV Routines
Sample format      : 44.100 Hz; 16 Bit; Stereo
TOC of the extracted CD
     Track |   Start  |  Length  | Start sector | End sector
    ---------------------------------------------------------
        1  |  0:00.00 |  1:17.23 |         0    |     5797
        2  |  1:17.23 |  4:03.66 |      5798    |    24088
        3  |  5:21.14 |  4:20.02 |     24089    |    43590
        4  |  9:41.16 |  5:18.09 |     43591    |    67449
        5  | 14:59.25 |  3:03.10 |     67450    |    81184
        6  | 18:02.35 |  4:35.03 |     81185    |   101812
        7  | 22:37.38 |  3:08.60 |    101813    |   115972
        8  | 25:46.23 |  4:25.03 |    115973    |   135850
        9  | 30:11.26 |  3:16.26 |    135851    |   150576
       10  | 33:27.52 |  3:54.12 |    150577    |   168138
       11  | 37:21.64 |  6:07.49 |    168139    |   195712
       12  | 43:29.38 |  4:03.33 |    195713    |   213970
       13  | 47:32.71 |  4:31.07 |    213971    |   234302
       14  | 52:04.03 |  5:34.18 |    234303    |   259370
       15  | 57:38.21 |  3:06.30 |    259371    |   273350
       16  | 60:44.51 |  3:15.07 |    273351    |   287982
       17  | 63:59.58 |  6:21.73 |    287983    |   316630
Range status and errors
Selected range
     Filename D:\EAC\vknish\Powerwolf - Lupus Dei (CD2).wav
     Peak level 97.8 %
     Extraction speed 4.6 X
     Range quality 99.9 %
     Test CRC 25243E52
     Copy CRC 25243E52
     Copy OK
No errors occurred
AccurateRip summary
Track  1  not present in database
Track  2  not present in database
Track  3  not present in database
Track  4  not present in database
Track  5  not present in database
Track  6  not present in database
Track  7  not present in database
Track  8  not present in database
Track  9  not present in database
Track 10  not present in database
Track 11  not present in database
Track 12  not present in database
Track 13  not present in database
Track 14  not present in database
Track 15  not present in database
Track 16  not present in database
Track 17  not present in database
None of the tracks are present in the AccurateRip database
End of status report
---- CUETools DB Plugin V2.1.3
[CTDB TOCID: BBrh04xP.ANKCUyHOZ1CfsnAiQE-] found, Submit result: already submitted
[f39d23df] (1/1) Accurately ripped

содержание индексной карты *cue

REM GENRE "Power Metal"
REM DATE 2014
REM DISCID E1107D11
REM COMMENT "ExactAudioCopy v1.0b3"
PERFORMER "Powerwolf"
TITLE "Lupus Dei (CD2)"
FILE "Powerwolf - Lupus Dei (CD2).flac" WAVE
  TRACK 01 AUDIO
    TITLE "Lupus Demonae (intro)"
    PERFORMER "Powerwolf"
    INDEX 01 00:00:00
  TRACK 02 AUDIO
    TITLE "We Take It From the Living"
    PERFORMER "Powerwolf"
    INDEX 01 01:17:23
  TRACK 03 AUDIO
    TITLE "Prayer in the Dark"
    PERFORMER "Powerwolf"
    INDEX 00 05:20:25
    INDEX 01 05:21:14
  TRACK 04 AUDIO
    TITLE "Saturday Satan"
    PERFORMER "Powerwolf"
    INDEX 01 09:41:16
  TRACK 05 AUDIO
    TITLE "In Blood We Trust"
    PERFORMER "Powerwolf"
    INDEX 00 14:57:61
    INDEX 01 14:59:25
  TRACK 06 AUDIO
    TITLE "Behind the Leathermask"
    PERFORMER "Powerwolf"
    INDEX 00 18:01:61
    INDEX 01 18:02:35
  TRACK 07 AUDIO
    TITLE "Vampires Don't Die"
    PERFORMER "Powerwolf"
    INDEX 00 22:36:35
    INDEX 01 22:37:38
  TRACK 08 AUDIO
    TITLE "When the Moon Shines Red"
    PERFORMER "Powerwolf"
    INDEX 00 25:44:49
    INDEX 01 25:46:23
  TRACK 09 AUDIO
    TITLE "Mother Mary is a Bird of Prey"
    PERFORMER "Powerwolf"
    INDEX 00 30:10:41
    INDEX 01 30:11:26
  TRACK 10 AUDIO
    TITLE "Tiger of Sabrod"
    PERFORMER "Powerwolf"
    INDEX 00 33:25:61
    INDEX 01 33:27:52
  TRACK 11 AUDIO
    TITLE "Lupus Dei"
    PERFORMER "Powerwolf"
    INDEX 01 37:21:64
  TRACK 12 AUDIO
    TITLE "We Take It From The Living (LIVE) Bonus Track"
    PERFORMER "Powerwolf"
    INDEX 01 43:29:38
  TRACK 13 AUDIO
    TITLE "Prayer In The Dark (LIVE) Bonus Track"
    PERFORMER "Powerwolf"
    INDEX 01 47:32:71
  TRACK 14 AUDIO
    TITLE "Saturday Satan (LIVE) Bonus Track"
    PERFORMER "Powerwolf"
    INDEX 01 52:04:03
  TRACK 15 AUDIO
    TITLE "In Blood We Trust (LIVE) Bonus Track"
    PERFORMER "Powerwolf"
    INDEX 01 57:38:21
  TRACK 16 AUDIO
    TITLE "Mother Mary Is a Bird Of Prey (LIVE) Bonus Track"
    PERFORMER "Powerwolf"
    INDEX 01 60:44:51
  TRACK 17 AUDIO
    TITLE "Lupus Dei (LIVE) Bonus Track "
    PERFORMER "Powerwolf"
    INDEX 01 63:59:58

2014 - The History of Heresy II-2009-2012 (3CD)

CD 1 - Bible of the Beast | 00:58:40

Лейбл издания: Blade Records
Номер по каталогу: 3984-15356-2


01.Prelude to Purgatory (01:14)
02.Raise Your Fist, Evangelist (04:00)
03.Moscow After Dark (03:15)
04.Panic in the Pentagram (05:15)
05.Catholic in the Morning...Satanist at Night (03:58)
06.Seven Deadly Saints (03:36)
07.Werewolves of Armenia (03:55)
08.We Take the Church by Storm (03:55)
09.Resurrection by Erection (03:51)
10.Midnight Messiah (04:13)
11.St. Satan's Day (04:31)
12.Wolfes Against the World (06:05)
13.Testament in Black (04:16)
14.Riding the Storm (Running Wild cover) (06:40)

лог создания рипа

Exact Audio Copy V1.0 beta 3 from 29. August 2011
EAC extraction logfile from 21. December 2014, 20:24
Powerwolf / The History of Heresy II - Bible of the Beast
Used drive  : TSSTcorpDVD-ROM SH-D162D   Adapter: 0  ID: 1
Read mode               : Secure
Utilize accurate stream : Yes
Defeat audio cache      : Yes
Make use of C2 pointers : No
Read offset correction                      : 6
Overread into Lead-In and Lead-Out          : No
Fill up missing offset samples with silence : Yes
Delete leading and trailing silent blocks   : No
Null samples used in CRC calculations       : Yes
Used interface                              : Native Win32 interface for Win NT & 2000
Used output format : Internal WAV Routines
Sample format      : 44.100 Hz; 16 Bit; Stereo
TOC of the extracted CD
     Track |   Start  |  Length  | Start sector | End sector
    ---------------------------------------------------------
        1  |  0:00.00 |  1:13.61 |         0    |     5535
        2  |  1:13.61 |  3:59.61 |      5536    |    23521
        3  |  5:13.47 |  3:14.42 |     23522    |    38113
        4  |  8:28.14 |  5:14.41 |     38114    |    61704
        5  | 13:42.55 |  3:57.50 |     61705    |    79529
        6  | 17:40.30 |  3:35.45 |     79530    |    95699
        7  | 21:16.00 |  3:54.53 |     95700    |   113302
        8  | 25:10.53 |  3:54.54 |    113303    |   130906
        9  | 29:05.32 |  3:50.53 |    130907    |   148209
       10  | 32:56.10 |  4:12.55 |    148210    |   167164
       11  | 37:08.65 |  4:30.54 |    167165    |   187468
       12  | 41:39.44 |  6:04.49 |    187469    |   214817
       13  | 47:44.18 |  4:15.67 |    214818    |   234009
       14  | 52:00.10 |  6:39.29 |    234010    |   263963
Range status and errors
Selected range
     Filename D:\EAC\vknish\Powerwolf - The History of Heresy II - Bible of the Beast.wav
     Peak level 100.0 %
     Extraction speed 7.0 X
     Range quality 99.9 %
     Test CRC 32FE866C
     Copy CRC 32FE866C
     Copy OK
No errors occurred
AccurateRip summary
Track  1  not present in database
Track  2  not present in database
Track  3  not present in database
Track  4  not present in database
Track  5  not present in database
Track  6  not present in database
Track  7  not present in database
Track  8  not present in database
Track  9  not present in database
Track 10  not present in database
Track 11  not present in database
Track 12  not present in database
Track 13  not present in database
Track 14  not present in database
None of the tracks are present in the AccurateRip database
End of status report
---- CUETools DB Plugin V2.1.3
[CTDB TOCID: XePXStzhSIVtuq9X0yZ_akfoqTI-] found, Submit result: XePXStzhSIVtuq9X0yZ_akfoqTI- has been confirmed
[5fa9750e] (1/1) Accurately ripped

содержание индексной карты *cue

REM GENRE "Heavy/Power Metal"
REM DATE 2014
REM DISCID A80DBF0E
REM COMMENT "ExactAudioCopy v1.0b3"
PERFORMER "Powerwolf"
TITLE "The History of Heresy II - Bible of the Beast"
FILE "Powerwolf - The History of Heresy II - Bible of the Beast.flac" WAVE
  TRACK 01 AUDIO
    TITLE "Prelude to Purgatory"
    PERFORMER "Powerwolf"
    INDEX 01 00:00:00
  TRACK 02 AUDIO
    TITLE "Raise Your Fist, Evangelist"
    PERFORMER "Powerwolf"
    INDEX 01 01:13:61
  TRACK 03 AUDIO
    TITLE "Moscow After Dark"
    PERFORMER "Powerwolf"
    INDEX 00 05:12:73
    INDEX 01 05:13:47
  TRACK 04 AUDIO
    TITLE "Panic in the Pentagram"
    PERFORMER "Powerwolf"
    INDEX 01 08:28:14
  TRACK 05 AUDIO
    TITLE "Catholic in the Morning...Satanist at Night"
    PERFORMER "Powerwolf"
    INDEX 00 13:41:07
    INDEX 01 13:42:55
  TRACK 06 AUDIO
    TITLE "Seven Deadly Saints"
    PERFORMER "Powerwolf"
    INDEX 00 17:39:51
    INDEX 01 17:40:30
  TRACK 07 AUDIO
    TITLE "Werewolves of Armenia"
    PERFORMER "Powerwolf"
    INDEX 00 21:10:01
    INDEX 01 21:16:00
  TRACK 08 AUDIO
    TITLE "We Take the Church by Storm"
    PERFORMER "Powerwolf"
    INDEX 00 25:10:24
    INDEX 01 25:10:53
  TRACK 09 AUDIO
    TITLE "Resurrection by Erection"
    PERFORMER "Powerwolf"
    INDEX 01 29:05:32
  TRACK 10 AUDIO
    TITLE "Midnight Messiah"
    PERFORMER "Powerwolf"
    INDEX 00 32:54:15
    INDEX 01 32:56:10
  TRACK 11 AUDIO
    TITLE "St. Satan's Day"
    PERFORMER "Powerwolf"
    INDEX 00 37:07:19
    INDEX 01 37:08:65
  TRACK 12 AUDIO
    TITLE "Wolfes Against the World"
    PERFORMER "Powerwolf"
    INDEX 01 41:39:44
  TRACK 13 AUDIO
    TITLE "Testament in Black"
    PERFORMER "Powerwolf"
    INDEX 01 47:44:18
  TRACK 14 AUDIO
    TITLE "Riding the Storm (Running Wild cover)"
    PERFORMER "Powerwolf"
    INDEX 01 52:00:10

CD 2 - Blood of the Saints | 00:41:52

Лейбл издания: Blade Records
Номер по каталогу: 3984-15356-2


01.Agnus Dei (00:49)
02.Sanctified with Dynamite (04:26)
03.We drink your Blood (03:43)
04.Murder at Midnight (04:48)
05.All we need is Blood (03:37)
06.Dead Boys don't Cry (03:26)
07.Son of a Wolf (04:00)
08.Night of the Werewolves (04:31)
09.Phantom of the Funeral (03:10)
10.Die, Die, Crucified (03:01)
11.Ira Sancti (06:26)

лог создания рипа

Exact Audio Copy V1.0 beta 3 from 29. August 2011
EAC extraction logfile from 21. December 2014, 19:45
Powerwolf / The History Of Heresy II - Blood of the Saints
Used drive  : TSSTcorpDVD-ROM SH-D162D   Adapter: 0  ID: 1
Read mode               : Secure
Utilize accurate stream : Yes
Defeat audio cache      : Yes
Make use of C2 pointers : No
Read offset correction                      : 6
Overread into Lead-In and Lead-Out          : No
Fill up missing offset samples with silence : Yes
Delete leading and trailing silent blocks   : No
Null samples used in CRC calculations       : Yes
Used interface                              : Native Win32 interface for Win NT & 2000
Used output format : Internal WAV Routines
Sample format      : 44.100 Hz; 16 Bit; Stereo
TOC of the extracted CD
     Track |   Start  |  Length  | Start sector | End sector
    ---------------------------------------------------------
        1  |  0:00.00 |  0:48.53 |         0    |     3652
        2  |  0:48.53 |  4:25.54 |      3653    |    23581
        3  |  5:14.32 |  3:42.42 |     23582    |    40273
        4  |  8:56.74 |  4:47.31 |     40274    |    61829
        5  | 13:44.30 |  3:36.15 |     61830    |    78044
        6  | 17:20.45 |  3:25.24 |     78045    |    93443
        7  | 20:45.69 |  3:59.37 |     93444    |   111405
        8  | 24:45.31 |  4:30.53 |    111406    |   131708
        9  | 29:16.09 |  3:09.32 |    131709    |   145915
       10  | 32:25.41 |  3:00.49 |    145916    |   159464
       11  | 35:26.15 |  6:25.30 |    159465    |   188369
Range status and errors
Selected range
     Filename D:\EAC\vknish\Powerwolf - The History Of Heresy II - Blood of the Saints.wav
     Peak level 99.9 %
     Extraction speed 6.5 X
     Range quality 99.9 %
     Test CRC 16A3A5D5
     Copy CRC 16A3A5D5
     Copy OK
No errors occurred
AccurateRip summary
Track  1  accurately ripped (confidence 29)  [7BB0A7D8]  (AR v2)
Track  2  accurately ripped (confidence 29)  [706F9B8F]  (AR v2)
Track  3  accurately ripped (confidence 29)  [C0963FD6]  (AR v2)
Track  4  accurately ripped (confidence 29)  [49BC64E0]  (AR v2)
Track  5  accurately ripped (confidence 29)  [DB792289]  (AR v2)
Track  6  accurately ripped (confidence 29)  [30204955]  (AR v2)
Track  7  accurately ripped (confidence 29)  [53C91A81]  (AR v2)
Track  8  accurately ripped (confidence 29)  [82D0B51D]  (AR v2)
Track  9  accurately ripped (confidence 29)  [4C431D5B]  (AR v2)
Track 10  accurately ripped (confidence 29)  [94CFDA6C]  (AR v2)
Track 11  accurately ripped (confidence 29)  [49A5052D]  (AR v2)
All tracks accurately ripped
End of status report
---- CUETools DB Plugin V2.1.3
[CTDB TOCID: TUVlBFrrUIYZ1biq1WFdUUIgcu0-] found, Submit result: already submitted
[9240a6a2] (61/62) Accurately ripped
[4e66d8ba] (01/62) No match

содержание индексной карты *cue

REM GENRE "Power Metal"
REM DATE 2014
REM DISCID 9109CF0B
REM COMMENT "ExactAudioCopy v1.0b3"
PERFORMER "Powerwolf"
TITLE "The History Of Heresy II - Blood of the Saints"
FILE "Powerwolf - The History Of Heresy II - Blood of the Saints.flac" WAVE
  TRACK 01 AUDIO
    TITLE "Agnus Dei"
    PERFORMER "Powerwolf"
    INDEX 01 00:00:00
  TRACK 02 AUDIO
    TITLE "Sanctified with Dynamite"
    PERFORMER "Powerwolf"
    INDEX 01 00:48:53
  TRACK 03 AUDIO
    TITLE "We drink your Blood"
    PERFORMER "Powerwolf"
    INDEX 00 05:12:60
    INDEX 01 05:14:32
  TRACK 04 AUDIO
    TITLE "Murder at Midnight"
    PERFORMER "Powerwolf"
    INDEX 01 08:56:74
  TRACK 05 AUDIO
    TITLE "All we need is Blood"
    PERFORMER "Powerwolf"
    INDEX 00 13:42:66
    INDEX 01 13:44:30
  TRACK 06 AUDIO
    TITLE "Dead Boys don't Cry"
    PERFORMER "Powerwolf"
    INDEX 00 17:19:26
    INDEX 01 17:20:45
  TRACK 07 AUDIO
    TITLE "Son of a Wolf"
    PERFORMER "Powerwolf"
    INDEX 00 20:44:44
    INDEX 01 20:45:69
  TRACK 08 AUDIO
    TITLE "Night of the Werewolves"
    PERFORMER "Powerwolf"
    INDEX 00 24:43:69
    INDEX 01 24:45:31
  TRACK 09 AUDIO
    TITLE "Phantom of the Funeral"
    PERFORMER "Powerwolf"
    INDEX 00 29:14:21
    INDEX 01 29:16:09
  TRACK 10 AUDIO
    TITLE "Die, Die, Crucified"
    PERFORMER "Powerwolf"
    INDEX 00 32:23:55
    INDEX 01 32:25:41
  TRACK 11 AUDIO
    TITLE "Ira Sancti"
    PERFORMER "Powerwolf"
    INDEX 00 35:24:15
    INDEX 01 35:26:15

CD 3 - The Sacrilege Symphony | 00:25:48

Лейбл издания: Blade Records
Номер по каталогу: 3984-15356-2


01.Powerwolf and Dominic G. Joutsen - Raise Your Fist, Evangelist (Orchestral Version) (04:31)
02.Powerwolf and Dominic G. Joutsen - In Blood We Trust (Orchestral Version) (04:51)
03.Powerwolf and Dominic G. Joutsen - Sanctified With Dynamite (Orchestral Version) (05:27)
04.Powerwolf and Dominic G. Joutsen - Ira Sancti (When The Saints Are Going Wild) (Orchestral Version) (05:28)
05.Powerwolf and Dominic G. Joutsen - Moscow After Dark (Orchestral Version) (05:32)

лог создания рипа

Exact Audio Copy V1.0 beta 3 from 29. August 2011
EAC extraction logfile from 21. December 2014, 20:03
Powerwolf and Dominic G. Joutsen / The History Of Heresy II - The Sacrilege Symphony
Used drive  : TSSTcorpDVD-ROM SH-D162D   Adapter: 0  ID: 1
Read mode               : Secure
Utilize accurate stream : Yes
Defeat audio cache      : Yes
Make use of C2 pointers : No
Read offset correction                      : 6
Overread into Lead-In and Lead-Out          : No
Fill up missing offset samples with silence : Yes
Delete leading and trailing silent blocks   : No
Null samples used in CRC calculations       : Yes
Used interface                              : Native Win32 interface for Win NT & 2000
Used output format : Internal WAV Routines
Sample format      : 44.100 Hz; 16 Bit; Stereo
TOC of the extracted CD
     Track |   Start  |  Length  | Start sector | End sector
    ---------------------------------------------------------
        1  |  0:00.00 |  4:30.48 |         0    |    20297
        2  |  4:30.48 |  4:50.27 |     20298    |    42074
        3  |  9:21.00 |  5:26.17 |     42075    |    66541
        4  | 14:47.17 |  5:27.74 |     66542    |    91140
        5  | 20:15.16 |  5:31.69 |     91141    |   116034
Range status and errors
Selected range
     Filename D:\EAC\vknish\Powerwolf and Dominic G. Joutsen - The History Of Heresy II - The Sacrilege Symphony.wav
     Peak level 98.8 %
     Extraction speed 5.8 X
     Range quality 99.9 %
     Test CRC 3BB5F83A
     Copy CRC 3BB5F83A
     Copy OK
No errors occurred
AccurateRip summary
Track  1  cannot be verified as accurate (confidence 9)  [5C87E132], AccurateRip returned [4804B107]  (AR v2)
Track  2  cannot be verified as accurate (confidence 9)  [893FB172], AccurateRip returned [B90B766D]  (AR v2)
Track  3  cannot be verified as accurate (confidence 9)  [D06F290E], AccurateRip returned [F603A3F2]  (AR v2)
Track  4  cannot be verified as accurate (confidence 9)  [83AB1E13], AccurateRip returned [B4EB2896]  (AR v2)
Track  5  cannot be verified as accurate (confidence 9)  [5F639AA2], AccurateRip returned [48E09D8B]  (AR v2)
No tracks could be verified as accurate
You may have a different pressing from the one(s) in the database
End of status report
---- CUETools DB Plugin V2.1.3
[CTDB TOCID: hy6LfYffT4I7VzfQ1eD_xgjkJQw-] found, Submit result: hy6LfYffT4I7VzfQ1eD_xgjkJQw- has been confirmed
[2e804cf6] (8/8) Accurately ripped

содержание индексной карты *cue

REM GENRE "Power Metal"
REM DATE 2014
REM DISCID 3F060B05
REM COMMENT "ExactAudioCopy v1.0b3"
PERFORMER "Powerwolf and Dominic G. Joutsen"
TITLE "The History Of Heresy II - The Sacrilege Symphony"
FILE "Powerwolf and Dominic G. Joutsen - The History Of Heresy II - The Sacrilege Symphony.flac" WAVE
  TRACK 01 AUDIO
    TITLE "Raise Your Fist, Evangelist (Orchestral Version)"
    PERFORMER "Powerwolf and Dominic G. Joutsen"
    INDEX 01 00:00:00
  TRACK 02 AUDIO
    TITLE "In Blood We Trust (Orchestral Version)"
    PERFORMER "Powerwolf and Dominic G. Joutsen"
    INDEX 01 04:30:48
  TRACK 03 AUDIO
    TITLE "Sanctified With Dynamite (Orchestral Version)"
    PERFORMER "Powerwolf and Dominic G. Joutsen"
    INDEX 01 09:21:00
  TRACK 04 AUDIO
    TITLE "Ira Sancti (When The Saints Are Going Wild) (Orchestral Version)"
    PERFORMER "Powerwolf and Dominic G. Joutsen"
    INDEX 01 14:47:17
  TRACK 05 AUDIO
    TITLE "Moscow After Dark (Orchestral Version)"
    PERFORMER "Powerwolf and Dominic G. Joutsen"
    INDEX 01 20:15:16

Создавать темы 07-Янв-2016 00:47 (спустя 40 секунд)

2015 - Blessed & Possessed (Limited Edition 2CD)

CD 1 - Blessed & Possessed | 00:45:48

Лейбл издания: Napalm Records
Номер по каталогу: --------


01.Blessed & Possessed (04:43)
02.Dead Until Dark (03:50)
03.Army Of The Night (03:22)
04.Armata Strigoi (04:00)
05.We Are The Wild (03:42)
06.Higher Than Heaven (03:31)
07.Christ & Combat (03:40)
08.Sanctus Dominus (03:23)
09.Sacramental Sister (04:37)
10.All You Can Bleed (03:45)
11.Let There Be Night (07:20)

лог создания рипа

Exact Audio Copy V1.0 beta 4 from 7. December 2014
EAC extraction logfile from 31. July 2015, 13:53
Powerwolf / Blessed & Possessed (Mediabook Ed.) CD I
Used drive  : HP      DVD Writer 1170d   Adapter: 1  ID: 1
Read mode               : Secure
Utilize accurate stream : Yes
Defeat audio cache      : Yes
Make use of C2 pointers : No
Read offset correction                      : 6
Overread into Lead-In and Lead-Out          : No
Fill up missing offset samples with silence : Yes
Delete leading and trailing silent blocks   : No
Null samples used in CRC calculations       : Yes
Used interface                              : Native Win32 interface for Win NT & 2000
Used output format              : User Defined Encoder
Selected bitrate                : 768 kBit/s
Quality                         : High
Add ID3 tag                     : No
Command line compressor         : C:\Program Files (x86)\Exact Audio Copy\FLAC\FLAC.EXE
Additional command line options : -V -8 -T "Date=%year%" -T "Genre=%genre%" -T"COMMENT=Ripped by Ungern666" -8 -V %source%
TOC of the extracted CD
     Track |   Start  |  Length  | Start sector | End sector
    ---------------------------------------------------------
        1  |  0:00.00 |  4:42.21 |         0    |    21170
        2  |  4:42.21 |  3:49.50 |     21171    |    38395
        3  |  8:31.71 |  3:21.29 |     38396    |    53499
        4  | 11:53.25 |  3:59.37 |     53500    |    71461
        5  | 15:52.62 |  3:41.27 |     71462    |    88063
        6  | 19:34.14 |  3:30.45 |     88064    |   103858
        7  | 23:04.59 |  3:39.53 |    103859    |   120336
        8  | 26:44.37 |  3:22.54 |    120337    |   135540
        9  | 30:07.16 |  4:36.67 |    135541    |   156307
       10  | 34:44.08 |  3:44.30 |    156308    |   173137
       11  | 38:28.38 |  7:19.37 |    173138    |   206099
Range status and errors
Selected range
     Filename C:\EAC\Ungern666\Powerwolf - Blessed & Possessed (Mediabook Ed.) CD I.wav
     Peak level 99.3 %
     Extraction speed 6.6 X
     Range quality 99.9 %
     Test CRC 1B6F53BB
     Copy CRC 1B6F53BB
     Copy OK
No errors occurred
AccurateRip summary
Track  1  not present in database
Track  2  not present in database
Track  3  not present in database
Track  4  not present in database
Track  5  not present in database
Track  6  not present in database
Track  7  not present in database
Track  8  not present in database
Track  9  not present in database
Track 10  not present in database
Track 11  not present in database
None of the tracks are present in the AccurateRip database
End of status report
---- CUETools DB Plugin V2.1.5
[CTDB TOCID: UzlIQzREPpqYxSHTc_Rtj._rB.s-] found
Submit result: already submitted
Track | CTDB Status
  1   | (56/56) Accurately ripped
  2   | (56/56) Accurately ripped
  3   | (56/56) Accurately ripped
  4   | (56/56) Accurately ripped
  5   | (56/56) Accurately ripped
  6   | (56/56) Accurately ripped
  7   | (56/56) Accurately ripped
  8   | (56/56) Accurately ripped
  9   | (56/56) Accurately ripped
10   | (56/56) Accurately ripped
11   | (56/56) Accurately ripped

содержание индексной карты *cue

REM DATE 2015
REM DISCID 8E0ABC0B
REM COMMENT "ExactAudioCopy v1.0b4"
PERFORMER "Powerwolf"
TITLE "Blessed & Possessed (Mediabook Ed.) CD I"
FILE "Powerwolf - Blessed & Possessed (Mediabook Ed.) CD I.flac" WAVE
  TRACK 01 AUDIO
    TITLE "Blessed & Possessed"
    PERFORMER "Powerwolf"
    INDEX 01 00:00:00
  TRACK 02 AUDIO
    TITLE "Dead Until Dark"
    PERFORMER "Powerwolf"
    INDEX 01 04:42:21
  TRACK 03 AUDIO
    TITLE "Army Of The Night"
    PERFORMER "Powerwolf"
    INDEX 01 08:31:71
  TRACK 04 AUDIO
    TITLE "Armata Strigoi"
    PERFORMER "Powerwolf"
    INDEX 01 11:53:25
  TRACK 05 AUDIO
    TITLE "We Are The Wild"
    PERFORMER "Powerwolf"
    INDEX 01 15:52:62
  TRACK 06 AUDIO
    TITLE "Higher Than Heaven"
    PERFORMER "Powerwolf"
    INDEX 01 19:34:14
  TRACK 07 AUDIO
    TITLE "Christ & Combat"
    PERFORMER "Powerwolf"
    INDEX 01 23:04:59
  TRACK 08 AUDIO
    TITLE "Sanctus Dominus"
    PERFORMER "Powerwolf"
    INDEX 01 26:44:37
  TRACK 09 AUDIO
    TITLE "Sacramental Sister"
    PERFORMER "Powerwolf"
    INDEX 01 30:07:16
  TRACK 10 AUDIO
    TITLE "All You Can Bleed"
    PERFORMER "Powerwolf"
    INDEX 01 34:44:08
  TRACK 11 AUDIO
    TITLE "Let There Be Night"
    PERFORMER "Powerwolf"
    INDEX 01 38:28:38

CD 2 - Metallum Nostrum \ 00:52:06

Лейбл издания: Napalm Records
Номер по каталогу: --------


01.Touch Of Evil (05:41)
02.Conquistadores (04:46)
03.Edge Of Thorns (06:01)
04.Power And Glory (04:55)
05.Out In The Fields (04:17)
06.Shot In The Dark (04:12)
07.Gods Of War Arise (05:54)
08.The Evil That Men Do (04:32)
09.Headless Cross (06:10)
10.Nightcrawler (05:43)

лог создания рипа

Exact Audio Copy V1.0 beta 4 from 7. December 2014
EAC extraction logfile from 31. July 2015, 14:10
Powerwolf / Blessed & Possessed (Mediabook Ed.) CD II
Used drive  : HP      DVD Writer 1170d   Adapter: 1  ID: 1
Read mode               : Secure
Utilize accurate stream : Yes
Defeat audio cache      : Yes
Make use of C2 pointers : No
Read offset correction                      : 6
Overread into Lead-In and Lead-Out          : No
Fill up missing offset samples with silence : Yes
Delete leading and trailing silent blocks   : No
Null samples used in CRC calculations       : Yes
Used interface                              : Native Win32 interface for Win NT & 2000
Used output format              : User Defined Encoder
Selected bitrate                : 768 kBit/s
Quality                         : High
Add ID3 tag                     : No
Command line compressor         : C:\Program Files (x86)\Exact Audio Copy\FLAC\FLAC.EXE
Additional command line options : -V -8 -T "Date=%year%" -T "Genre=%genre%" -T"COMMENT=Ripped by Ungern666" -8 -V %source%
TOC of the extracted CD
     Track |   Start  |  Length  | Start sector | End sector
    ---------------------------------------------------------
        1  |  0:00.00 |  5:40.31 |         0    |    25530
        2  |  5:40.31 |  4:45.23 |     25531    |    46928
        3  | 10:25.54 |  6:00.03 |     46929    |    73931
        4  | 16:25.57 |  4:54.66 |     73932    |    96047
        5  | 21:20.48 |  4:16.30 |     96048    |   115277
        6  | 25:37.03 |  4:11.34 |    115278    |   134136
        7  | 29:48.37 |  5:53.37 |    134137    |   160648
        8  | 35:41.74 |  4:31.05 |    160649    |   180978
        9  | 40:13.04 |  6:09.53 |    180979    |   208706
       10  | 46:22.57 |  5:42.26 |    208707    |   234382
Range status and errors
Selected range
     Filename C:\EAC\Ungern666\Powerwolf - Blessed & Possessed (Mediabook Ed.) CD II.wav
     Peak level 98.7 %
     Extraction speed 6.9 X
     Range quality 99.9 %
     Test CRC 87975D68
     Copy CRC 87975D68
     Copy OK
No errors occurred
AccurateRip summary
Track  1  not present in database
Track  2  not present in database
Track  3  not present in database
Track  4  not present in database
Track  5  not present in database
Track  6  not present in database
Track  7  not present in database
Track  8  not present in database
Track  9  not present in database
Track 10  not present in database
None of the tracks are present in the AccurateRip database
End of status report
---- CUETools DB Plugin V2.1.5
[CTDB TOCID: W9GU51C9PqafjNqjoXMTVwpJYxM-] found
Submit result: already submitted
Track | CTDB Status
  1   | (46/46) Accurately ripped
  2   | (46/46) Accurately ripped
  3   | (46/46) Accurately ripped
  4   | (46/46) Accurately ripped
  5   | (46/46) Accurately ripped
  6   | (46/46) Accurately ripped
  7   | (46/46) Accurately ripped
  8   | (46/46) Accurately ripped
  9   | (46/46) Accurately ripped
10   | (46/46) Accurately ripped

содержание индексной карты *cue

REM DATE 2015
REM DISCID 8D0C350A
REM COMMENT "ExactAudioCopy v1.0b4"
PERFORMER "Powerwolf"
TITLE "Blessed & Possessed (Mediabook Ed.) CD II"
FILE "Powerwolf - Blessed & Possessed (Mediabook Ed.) CD II.flac" WAVE
  TRACK 01 AUDIO
    TITLE "Touch Of Evil"
    PERFORMER "Powerwolf"
    FLAGS DCP
    INDEX 01 00:00:00
  TRACK 02 AUDIO
    TITLE "Conquistadores"
    PERFORMER "Powerwolf"
    FLAGS DCP
    INDEX 01 05:40:31
  TRACK 03 AUDIO
    TITLE "Edge Of Thorns"
    PERFORMER "Powerwolf"
    FLAGS DCP
    INDEX 01 10:25:54
  TRACK 04 AUDIO
    TITLE " Power And Glory"
    PERFORMER "Powerwolf"
    FLAGS DCP
    INDEX 01 16:25:57
  TRACK 05 AUDIO
    TITLE "Out In The Fields"
    PERFORMER "Powerwolf"
    FLAGS DCP
    INDEX 01 21:20:48
  TRACK 06 AUDIO
    TITLE "Shot In The Dark"
    PERFORMER "Powerwolf"
    FLAGS DCP
    INDEX 01 25:37:03
  TRACK 07 AUDIO
    TITLE "Gods Of War Arise"
    PERFORMER "Powerwolf"
    FLAGS DCP
    INDEX 01 29:48:37
  TRACK 08 AUDIO
    TITLE "The Evil That Men Do"
    PERFORMER "Powerwolf"
    FLAGS DCP
    INDEX 01 35:41:74
  TRACK 09 AUDIO
    TITLE "Headless Cross"
    PERFORMER "Powerwolf"
    FLAGS DCP
    INDEX 01 40:13:04
  TRACK 10 AUDIO
    TITLE "Nightcrawler"
    PERFORMER "Powerwolf"
    FLAGS DCP
    INDEX 01 46:22:57

V.A. - Wolfsnaechte 2012 - Tour EP (2012) | 00:16:28

Лейбл издания: Blade Records
Номер по каталогу: NB2865-2DLT 02


01.Powerwolf - Living On A Nightmare (03:53)
02.Mystic Prophecy - World Of Emtiness (03:42)
03.Stormwarrior - Metal Legacy (Live) (04:30)
04.Lonewolf - Army Of The Damned (04:24)

лог создания рипа

Exact Audio Copy V1.0 beta 3 from 29. August 2011
EAC extraction logfile from 20. February 2014, 18:08
V.A. / Wolfsnaechte 2012 - Tour EP (2012)
Used drive  : _NEC    DVD_RW ND-4571A   Adapter: 0  ID: 0
Read mode               : Secure
Utilize accurate stream : Yes
Defeat audio cache      : Yes
Make use of C2 pointers : No
Read offset correction                      : 48
Overread into Lead-In and Lead-Out          : No
Fill up missing offset samples with silence : Yes
Delete leading and trailing silent blocks   : No
Null samples used in CRC calculations       : Yes
Used interface                              : Native Win32 interface for Win NT & 2000
Used output format : Internal WAV Routines
Sample format      : 44.100 Hz; 16 Bit; Stereo
TOC of the extracted CD
     Track |   Start  |  Length  | Start sector | End sector
    ---------------------------------------------------------
        1  |  0:00.00 |  3:52.71 |         0    |    17470
        2  |  3:52.71 |  3:41.16 |     17471    |    34061
        3  |  7:34.12 |  4:29.25 |     34062    |    54261
        4  | 12:03.37 |  4:23.62 |     54262    |    74048
Range status and errors
Selected range
     Filename D:\EAC\vknish\V.A. - Wolfsnaechte 2012 - Tour EP (2012).wav
     Peak level 99.9 %
     Extraction speed 3.6 X
     Range quality 100.0 %
     Test CRC A0186587
     Copy CRC A0186587
     Copy OK
No errors occurred
AccurateRip summary
Track  1  accurately ripped (confidence 4)  [80A155ED]  (AR v2)
Track  2  accurately ripped (confidence 4)  [A2159D12]  (AR v2)
Track  3  accurately ripped (confidence 4)  [554C259F]  (AR v2)
Track  4  accurately ripped (confidence 4)  [69868FCE]  (AR v2)
All tracks accurately ripped
End of status report
---- CUETools DB Plugin V2.1.3
[CTDB TOCID: JeKn2wPy_hoIQ15uEecp_.HsiK0-] found, Submit result: JeKn2wPy_hoIQ15uEecp_.HsiK0- has been confirmed
[8dfd821e] (4/4) Accurately ripped

содержание индексной карты *cue

REM GENRE "Progressive metal"
REM DATE 2012
REM DISCID 2803DB04
REM COMMENT "ExactAudioCopy v1.0b3"
PERFORMER "V.A."
TITLE "Wolfsnaechte 2012 - Tour EP (2012)"
FILE "V.A. - Wolfsnaechte 2012 - Tour EP (2012).flac" WAVE
  TRACK 01 AUDIO
    TITLE "Living On A Nightmare"
    PERFORMER "Powerwolf "
    INDEX 01 00:00:00
  TRACK 02 AUDIO
    TITLE "World Of Emtiness"
    PERFORMER "Mystic Prophecy "
    INDEX 00 03:50:71
    INDEX 01 03:52:71
  TRACK 03 AUDIO
    TITLE "Metal Legacy (Live)"
    PERFORMER "Stormwarrior"
    INDEX 00 07:32:12
    INDEX 01 07:34:12
  TRACK 04 AUDIO
    TITLE "Army Of The Damned"
    PERFORMER "Lonewolf"
    INDEX 00 12:01:37
    INDEX 01 12:03:37
Яндекс.Метрика
Рейтинг@Mail.ru