45 лет / 45 Years (2015) HDRip [Line]

 

Создавать темы 06-Янв-2016 19:06

-45 лет / 45 Years (2015) HDRip- Производство: Великобритания
Жанр: Драма, мелодрама
Режиссер: Эндрю Хэй
Актеры: Шарлотта Рэмплинг, Том Кортни, Долли Уэллс, Джеральдин Джеймс, Ханна Чалмерс, Мишель Финч, Ричард Каннингэм, Руфус Райт, Дэвид Сибли, Сэм Александр
Описание: Кейт и Джефф Меркеры готовятся отметить 45-летнюю годовщину свадьбы. Они так давно вместе и так близки друг другу, что кажется, будто прожили одну жизнь на двоих. Но оказалось, что это не так. Кейт не знала, что за несколько лет до встречи с ней у Джеффа была другая любимая. Во время их путешествия в Швейцарских Альпах она погибла, сорвавшись со скалы. И вот теперь, за неделю до большого торжества, в дом [kp]Меркеров пришло письмо с сообщением о том, что ее тело нашли в ледяной пропасти…
http://www.kinopoisk.ru/film/855905/[/kp]
Дата мировой премьеры: 6 февраля 2015
Дата премьеры в России: 3 декабря 2015

Продолжительность: 01:35:31
Качество видео: HDRip
Перевод: Профессиональный многоголосый (Чистый звук)
Субтитры: Отсутствуют
Реклама: Присутствуют голосовые и текстовые вставки рекламы.
Видео: MPEG4, XviD, 720x384 (1.875), 23.976 fps, 1 980 Kbps (0.299 bit/pixel)
Аудио: AC-3, 48.0 KHz, 2 ch, 192 Kbps, CBR

Доп.Информация:

Общее
Полное имя : C:\000\45 лет\45 let 2015 HDRip.avi
Формат : AVI
Формат/Информация : Audio Video Interleave
Размер файла : 1,46 Гбайт
Продолжительность : 1 ч. 35 м.
Общий поток : 2182 Кбит/сек
Программа кодирования : VirtualDubMod 1.5.10.3
Библиотека кодирования : VirtualDubMod build 2550/release
Видео
Идентификатор : 0
Формат : MPEG-4 Visual
Профиль формата : Advanced [email protected]
Параметр BVOP формата : 2
Параметр QPel формата : Нет
Параметр GMC формата : Без точки перехода
Параметр матрицы формата : Default (MPEG)
Идентификатор кодека : XVID
Идентификатор кодека/Подсказка : XviD
Продолжительность : 1 ч. 35 м.
Битрейт : 1980 Кбит/сек
Ширина : 720 пикселей
Высота : 384 пикселя
Соотношение сторон : 1,875
Частота кадров : 23,976 кадра/сек
Цветовое пространство : YUV
Субдискретизация насыщенности : 4:2:0
Битовая глубина : 8 бит
Тип развёртки : Прогрессивная
Метод сжатия : С потерями
Бит/(Пиксели*Кадры) : 0.299
Размер потока : 1,32 Гбайт (91%)
Библиотека кодирования : XviD 1.2.1 (UTC 2008-12-04)
Аудио
Идентификатор : 1
Формат : AC-3
Формат/Информация : Audio Coding 3
Расширение режима : CM (complete main)
Идентификатор кодека : 2000
Продолжительность : 1 ч. 35 м.
Вид битрейта : Постоянный
Битрейт : 192 Кбит/сек
Каналы : 2 канала
Расположение каналов : Front: L R
Частота : 48,0 КГц
Битовая глубина : 16 бит
Метод сжатия : С потерями
Размер потока : 131 Мбайт (9%)
Выравнивание : Разделение по промежуткам
Продолжительность промежутка : 42 мс. (1,00 видеокадр)
Время предзагрузки промежутка : 500 мс.
Скриншоты:
Время раздачи: Круглосуточно до 10 скачавших
Яндекс.Метрика
Рейтинг@Mail.ru