(Heavy Metal)Motorhead - The World Is Yours - 2010 [Ape, image +.cue, lossless]

 

Создавать темы 05-Янв-2016 22:37

--Motorhead - The World Is Yours Год издания: 2010
Страна: UK
Жанр: Heavy Metal
Продолжительность: 00:39:14-Лейбл издания: Motorhead Music
Страна-выпуска диска: Germany
Формат: APE
Битрейт аудио: lossless
Тип рипа: image+.cue
Наличие сканов в содержимом раздачи: да
-

треклист:

01. Born To Lose (04:02)
02. l Know How To Die (03:20)
03. Get Back in Line (03:36)
04. Devils in My Head (04:22)
05. Rock 'n' Roll Music (04:26)
06. Walting for The Snake (03:42)
07. Brotherhood of Man (05:16)
08. Outlaw (03:31)
09. l Know What You Need (02:59)
10. Bye Bye Bitch Bye Bye (04:05)
-

лог создания рипа

Exact Audio Copy V0.99 prebeta 5 from 4. May 2009
EAC extraction logfile from 29. December 2015, 16:35
Motorhead / The World Is Yours
Used drive  : ASUS    DRW-20B1ST   Adapter: 3  ID: 0
Read mode               : Secure
Utilize accurate stream : Yes
Defeat audio cache      : Yes
Make use of C2 pointers : No
Read offset correction                      : 6
Overread into Lead-In and Lead-Out          : No
Fill up missing offset samples with silence : Yes
Delete leading and trailing silent blocks   : No
Null samples used in CRC calculations       : Yes
Used interface                              : Native Win32 interface for Win NT & 2000
Used output format              : Monkey's Audio Lossless Encoder
Selected bitrate                : High Lossless Compression
Quality                         : High
Add ID3 tag                     : No
Command line compressor         : C:\Program Files (x86)\Monkey's Audio\MAC.exe
Additional command line options :  %source% %dest% -c3000
Use compression offset          : 0
TOC of the extracted CD
     Track |   Start  |  Length  | Start sector | End sector
    ---------------------------------------------------------
        1  |  0:00.00 |  4:01.22 |         0    |    18096
        2  |  4:01.22 |  3:19.59 |     18097    |    33080
        3  |  7:21.06 |  3:35.63 |     33081    |    49268
        4  | 10:56.69 |  4:21.37 |     49269    |    68880
        5  | 15:18.31 |  4:25.05 |     68881    |    88760
        6  | 19:43.36 |  3:41.39 |     88761    |   105374
        7  | 23:25.00 |  5:15.42 |    105375    |   129041
        8  | 28:40.42 |  3:30.47 |    129042    |   144838
        9  | 32:11.14 |  2:58.09 |    144839    |   158197
       10  | 35:09.23 |  4:04.22 |    158198    |   176519
Range status and errors
Selected range
     Filename E:\Motorhead - The World Is Yours.wav
     Peak level 100.0 %
     Range quality 100.0 %
     Copy CRC C8CE15B2
     Copy OK
No errors occurred
AccurateRip summary
Track  1  accurately ripped (confidence 56)  [1C76AD3D]
Track  2  accurately ripped (confidence 55)  [91A5B31F]
Track  3  accurately ripped (confidence 55)  [3948A291]
Track  4  accurately ripped (confidence 53)  [00C64FEE]
Track  5  accurately ripped (confidence 54)  [383B3A29]
Track  6  accurately ripped (confidence 53)  [F1FB002F]
Track  7  accurately ripped (confidence 54)  [C7799B46]
Track  8  accurately ripped (confidence 55)  [39DF4466]
Track  9  accurately ripped (confidence 55)  [CF765A1D]
Track 10  accurately ripped (confidence 55)  [23B547ED]
All tracks accurately ripped
End of status report

содержание индексной карты *cue

REM GENRE "Heavy Metal"
REM DATE 2010
REM DISCID 7009310A
REM COMMENT "ExactAudioCopy v0.99pb5"
PERFORMER "Motorhead"
TITLE "The World Is Yours"
FILE "Motorhead - The World Is Yours.ape" WAVE
  TRACK 01 AUDIO
    TITLE "Born To Lose"
    PERFORMER Motorhead
    INDEX 01 00:00:00
  TRACK 02 AUDIO
    TITLE "l Know How To Die"
    PERFORMER Motorhead
    INDEX 01 04:01:22
  TRACK 03 AUDIO
    TITLE "Get Back in Line"
    PERFORMER Motorhead
    INDEX 01 07:21:06
  TRACK 04 AUDIO
    TITLE "Devils in My Head"
    PERFORMER Motorhead
    INDEX 01 10:56:69
  TRACK 05 AUDIO
    TITLE "Rock 'n' Roll Music"
    PERFORMER Motorhead
    INDEX 01 15:18:31
  TRACK 06 AUDIO
    TITLE "Walting for The Snake"
    PERFORMER Motorhead
    INDEX 01 19:43:36
  TRACK 07 AUDIO
    TITLE "Brotherhood of Man"
    PERFORMER Motorhead
    INDEX 01 23:25:00
  TRACK 08 AUDIO
    TITLE Outlaw
    PERFORMER Motorhead
    INDEX 01 28:40:42
  TRACK 09 AUDIO
    TITLE "l Know What You Need"
    PERFORMER Motorhead
    INDEX 01 32:11:14
  TRACK 10 AUDIO
    TITLE "Bye Bye Bitch Bye Bye"
    PERFORMER Motorhead
    INDEX 01 35:09:23
Яндекс.Метрика
Рейтинг@Mail.ru